Welcome Guest ( Log In | Register )

> Releases Upload / Добавление релизов

Добавить релиз тут / Click here to add release
Рекомендованные обменники / Recommended file shares

 
Reply to this topicStart new topic
> Unearthed - Losing The Known [demo] (1994), Death Metal (D5)
post Jun 10 2021, 14:17:03
Post #1

Подвал
**************
Group: Металариец
Posts: 16,136
Releases: 9245
From: Far East (Khabarovsk)
On Forums: 12 years 4 months
Thanks: 104369 time(s)
Russian Federation


(IMG:http://metalarea.org/images/audiocovers/2021_Jun/acov_tid351905_thumb.jpg)

*Artist: Unearthed
*Album: Losing The Known [demo]
*Year: 1994
*Genre: Death Metal
*Country: United States (IMG:http://metalarea.org/forum/style_images/flags/United%20States.png)
*Format: mp3@CBR320kbps
*Size: 38MB

Tracklist:
1. Disease 04:04
2. Scales 06:46
3. Dying Years 04:57
******************************
Total playing time: 15:47



Extended info
Band from Simi Valley, California.
Recorded & mixed Sept. 10-11, 1994 at Record Way Studio, Granada Hills, California.


Technical info
(IMG:http://metalarea.org/images/spectrogram/2021_Jun/0ee35eb4bb644241412066e946fabe13.png)
Input File: 01-Disease.mp3
Channels : 2
Sample Rate : 44100
Precision : 16-bit
Duration : 00:04:11.65 = 11097941 samples = 18874 CDDA sectors
File Size : 10.2M
Bit Rate : 326k
Sample Encoding: MPEG audio (layer I, II or III)
Comments :
Title=Disease
Artist=Unearthed (US, CA)
Album=Losing the Known (Demo)
Tracknumber=01
Year=1994
Genre=Death Metal



Register


Go to the top of the page
  Insert nick Quick quote
+Quote Post

Reply to this topicStart new topic
1 User(s) are reading this topic (1 Guests and 0 Anonymous Users)
0 Members:

 



- Lo-Fi Version Support form
Copyrights and abuse reports form
Time is now: 25th June 2021 - 04:45:54