Welcome Guest ( Log In | Register )

> Releases Upload / Добавление релизов

Добавить релиз тут / Click here to add release
Рекомендованные обменники / Recommended file shares

 
Reply to this topicStart new topic
> Unearthed - Unearthed [demo] (1992), Death Metal (D5)
post Jun 10 2021, 14:26:52
Post #1

Подвал
**************
Group: Металариец
Posts: 16,136
Releases: 9245
From: Far East (Khabarovsk)
On Forums: 12 years 4 months
Thanks: 104370 time(s)
Russian Federation


(IMG:http://metalarea.org/images/audiocovers/2021_Jun/acov_tid351906_thumb.jpg)

*Artist: Unearthed
*Album: Unearthed [demo]
*Year: 1992
*Genre: Death Metal
*Country: United States (IMG:http://metalarea.org/forum/style_images/flags/United%20States.png)
*Format: mp3@CBR320kbps
*Size: 54MB

Tracklist:
1. Discorporation 04:56
2. Unearthed 05:43
3. Somnambulic 04:32
4. Emminent Decay/Vision Unseen 08:45
******************************
Total playing time: 23:56



Extended info
Band from Simi Valley, California.
Recorded & mixed Aug. 1992 by Unearthed.


Technical info
(IMG:http://metalarea.org/images/spectrogram/2021_Jun/77b0ce05acbbe0dfc9d0fa1e1ce61141.png)
Input File: 01-Discorporation.mp3
Channels : 2
Sample Rate : 44100
Precision : 16-bit
Duration : 00:04:56.48 = 13074900 samples = 22236.2 CDDA sectors
File Size : 12.0M
Bit Rate : 324k
Sample Encoding: MPEG audio (layer I, II or III)
Comments :
Title=Discorporation
Artist=Unearthed (US, CA)
Album=Unearthed (Demo)
Tracknumber=01
Year=1991
Genre=Death Metal



Register


Go to the top of the page
  Insert nick Quick quote
+Quote Post

Reply to this topicStart new topic
1 User(s) are reading this topic (1 Guests and 0 Anonymous Users)
0 Members:

 



- Lo-Fi Version Support form
Copyrights and abuse reports form
Time is now: 25th June 2021 - 05:01:04