Welcome Guest ( Log In | Register )

 
Reply to this topicStart new topic
> Passéisme - Eminence (2021), Black Metal
post Jun 10 2021, 14:32:25
Post #1

Правь статус, ####!111
**************
Group: Металариец
Posts: 27,442
Releases: 19922
From: Г.Харьков
On Forums: 9 years 4 months
Thanks: 402230 time(s)
Unknown


(IMG:https://metalarea.org/images/audiocovers/2021_Jun/acov_tid351907_thumb.jpg)

*Artist: Passéisme
*Album: Eminence
*Year: 2021
*Genre: Black Metal
*Country: Russian Federation (IMG:https://metalarea.org/forum/style_images/flags/Russian%20Federation.png)
*Format: mp3@CBR320kbps
*Size: 85MB

Tracklist:
1. Chant for Tribulation 06:17
2. Chant for Harvest 04:33
3. Chant for Austerity 03:59
4. Chant for Insolence 05:16
5. Chant for Parade 04:14
6. Chant for Splendour 01:14
7. Chant for Enlightenment 10:21
******************************
Total playing time: 35:54


Preview 2

Extended info
KK Bass, Vocals, Vocals
AV Drums
IM Guitars


Technical info
(IMG:https://metalarea.org/images/spectrogram/2021_Jun/b2771b98239ff3a5b655fd612d6dacae.png)
Input File: 04 - Chant for Insolence.mp3
Channels : 2
Sample Rate : 44100
Precision : 16-bit
Duration : 00:05:16.00 = 13935600 samples = 23700 CDDA sectors
File Size : 12.9M
Bit Rate : 325k
Sample Encoding: MPEG audio (layer I, II or III)
Comments :
Title=Chant for Insolence
Artist=Passéisme
Album=Eminence
Tracknumber=4
Year=2021-06-11
Genre=Rock
Discnumber=1



Register


Go to the top of the page
  Insert nick Quick quote
+Quote Post

Reply to this topicStart new topic
1 User(s) are reading this topic (1 Guests and 0 Anonymous Users)
0 Members:

 



- Lo-Fi Version Support form
Copyrights and abuse reports form
Time is now: 27th September 2021 - 05:10:20