Welcome Guest ( Log In | Register )

> Releases Upload / Добавление релизов

Добавить релиз тут / Click here to add release
Рекомендованные обменники / Recommended file shares

> Ravnkald - Pagan Warriors United (2017), Pagan Black Metal (D4)
post Jun 10 2021, 14:38:57
Post #1

𝕻𝕬𝕹𝕬𝕮𝕰𝕬
*********
Group: Металариец
Posts: 929
Releases: 548
On Forums: 9 years 2 weeks
Thanks: 9874 time(s)
Unknown


(IMG:https://metalarea.org/images/audiocovers/2021_Jun/acov_tid351908_thumb.jpg)

*Artist: Ravnkald
*Album: Pagan Warriors United
*Year: 2017
*Genre: Pagan Black Metal
*Country: International (IMG:https://metalarea.org/forum/style_images/flags/International.png)
*Format: mp3@CBR320kbps
*Size: 89MB

Tracklist:
1. The Kings Hall 02:24
2. With Pride Towards The Battle 05:22
3. Legacy 06:27
4. Ancestral Spirit 05:18
5. Pagan Woods 04:18
6. Soldiers Of Eternity 04:35
7. Pagan Fury 03:13
8. Marchando Como Gigantes 05:20
9. The Last Journey 02:57
******************************
Total playing time: 39:54



Technical info
(IMG:https://metalarea.org/images/spectrogram/2021_Jun/763007c03758512b07d5bb8c28924b3a.png)
Input File: 04 - Pagan Witchery.mp3
Channels : 2
Sample Rate : 44100
Precision : 16-bit
Duration : 00:04:28.01 = 11819373 samples = 20101 CDDA sectors
File Size : 11.1M
Bit Rate : 333k
Sample Encoding: MPEG audio (layer I, II or III)
Comments :
Title=Pagan Witchery
Artist=Ravnkald
Album=Ancestral Steel
Tracknumber=4
Year=2016
Genre=Pagan Black Metal



Register


Go to the top of the page
  Insert nick Quick quote
+Quote Post
 
Start new topic
Replies (1 - 1)
post Jun 14 2021, 11:03:14
Post #2

0%Tolerance
**********
Group: Металариец
Posts: 1,038
Releases: 0
On Forums: 8 years 9 months
Thanks: 187 time(s)
Unknown


Здесь, в отличии от предыдущего, с п0ган блэка швырнуло чуваков в п0ган дэтх с вытьём на подпевках. Довольно нудно звучит на фоне альбома '16 года.
Рание их альбомы не помню уже, но точно слушал. Крайний ещё для сравнения послушаю, когда подвезут. Хотя, не буду ждать - ценкану на бандкампе.
Go to the top of the page
  Insert nick Quick quote
+Quote Post

Reply to this topicStart new topic
2 User(s) are reading this topic (2 Guests and 0 Anonymous Users)
0 Members:

 



- Lo-Fi Version Support form
Copyrights and abuse reports form
Time is now: 18th June 2021 - 06:31:53