Welcome Guest ( Log In | Register )

> Releases Upload / Добавление релизов

Добавить релиз тут / Click here to add release
Рекомендованные обменники / Recommended file shares

 
Reply to this topicStart new topic
> Winter's Breath - Graveyard Symphonies (2021), Atmospheric Black Metal
post Jun 10 2021, 14:41:57
Post #1

Шесть Литров
******
Group: Металариец
Posts: 535
Releases: 481
On Forums: 3 months 1 day
Thanks: 11532 time(s)
United States


(IMG:https://metalarea.org/images/audiocovers/2021_Jun/acov_tid351909_thumb.jpg)

*Artist: Winter's Breath
*Album: Graveyard Symphonies
*Year: 2021
*Genre: Atmospheric Black Metal
*Country: Austria (IMG:https://metalarea.org/forum/style_images/flags/Austria.png)
*Format: mp3@CBR320kbps
*Size: 128MB

Tracklist:
01. The Beginning...
02. Desperate Soul
03. Path To Extinction
04. Last Breath
05. Afterlife (Lady In Black II)
06. Lessons Of The Past
07. Dead Man's Day
08. Graveyard Symphony
09. ...Of The End
******************************
Total playing time: 49:58



Technical info
(IMG:https://metalarea.org/images/spectrogram/2021_Jun/7332b146f59f5b72b5a65c817abb935f.png)
Input File: 02. Desperate Soul.mp3
Channels : 2
Sample Rate : 44100
Precision : 16-bit
Duration : 00:06:02.08 = 15967728 samples = 27156 CDDA sectors
File Size : 14.9M
Bit Rate : 330k
Sample Encoding: MPEG audio (layer I, II or III)
Comments :
Title=Desperate Soul
Artist=Winter's Breath
Album=Graveyard Symphonies
Tracknumber=02/09
Year=2021
Genre=Black Metal



Register


Go to the top of the page
  Insert nick Quick quote
+Quote Post

Reply to this topicStart new topic
2 User(s) are reading this topic (2 Guests and 0 Anonymous Users)
0 Members:

 



- Lo-Fi Version Support form
Copyrights and abuse reports form
Time is now: 29th July 2021 - 12:46:18