Welcome Guest ( Log In | Register )

> Releases Upload / Добавление релизов

Добавить релиз тут / Click here to add release
Рекомендованные обменники / Recommended file shares

> Ravnkald - Ancestral Steel (2016), Pagan Black Metal (D4)
post Jun 10 2021, 14:41:57
Post #1

𝕻𝕬𝕹𝕬𝕮𝕰𝕬
*********
Group: Металариец
Posts: 929
Releases: 548
On Forums: 9 years 3 weeks
Thanks: 9879 time(s)
Unknown


(IMG:https://metalarea.org/images/audiocovers/2021_Jun/acov_tid351910_thumb.jpg)

*Artist: Ravnkald
*Album: Ancestral Steel
*Year: 2016
*Genre: Pagan Black Metal
*Country: International (IMG:https://metalarea.org/forum/style_images/flags/International.png)
*Format: mp3@CBR320kbps
*Size: 77MB

Tracklist:
1. Prelude To The Storm 01:20
2. Ancestral Steel 05:47
3. Free Like The wind 06:14
4. Pagan Witchery 04:31
5. Blood Of My Ancestors 04:24
6. Wolves From The South 04:57
7. Strong As A Mountain 05:08
8. Outro 01:16
******************************
Total playing time: 33:37



Technical info
(IMG:https://metalarea.org/images/spectrogram/2021_Jun/de8dbbfd9fde1cb68d85c623adc92787.png)
Input File: 02 - Ancestral Steel.mp3
Channels : 2
Sample Rate : 44100
Precision : 16-bit
Duration : 00:05:41.05 = 15040305 samples = 25578.8 CDDA sectors
File Size : 14.1M
Bit Rate : 330k
Sample Encoding: MPEG audio (layer I, II or III)
Comments :
Title=Ancestral Steel
Artist=Ravnkald
Album=Ancestral Steel
Tracknumber=2
Year=2016
Genre=Pagan Black Metal



Register


Go to the top of the page
  Insert nick Quick quote
+Quote Post
 
Start new topic
Replies (1 - 1)
post Jun 14 2021, 10:55:54
Post #2

0%Tolerance
**********
Group: Металариец
Posts: 1,046
Releases: 0
On Forums: 8 years 9 months
Thanks: 188 time(s)
Unknown


Отличный паган блэк митал норвеги с мексикосами и швейцар(ца)ми выдали.
Go to the top of the page
  Insert nick Quick quote
+Quote Post

Reply to this topicStart new topic
1 User(s) are reading this topic (1 Guests and 0 Anonymous Users)
0 Members:

 



- Lo-Fi Version Support form
Copyrights and abuse reports form
Time is now: 25th June 2021 - 04:52:10