Welcome Guest ( Log In | Register )

> Releases Upload / Добавление релизов

Добавить релиз тут / Click here to add release
Рекомендованные обменники / Recommended file shares

> Crucifixion Bell - Eternal Grip Of The Nocturnal Empire (2021), Raw Black Metal
post Jun 10 2021, 15:39:10
Post #1

Malum dominus omnium
****
Group: Металариец
Posts: 366
Releases: 276
On Forums: 1 year 4 months
Thanks: 5559 time(s)
Vatican City


(IMG:https://metalarea.org/images/audiocovers/2021_Jun/acov_tid351912_thumb.jpg)

*Artist: Crucifixion Bell
*Album: Eternal Grip Of The Nocturnal Empire
*Year: 2021
*Genre: Raw Black Metal
*Country: United States (IMG:https://metalarea.org/forum/style_images/flags/United%20States.png)
*Format: mp3@CBR320kbps
*Size: 67MB

Tracklist:
1. Awakening Spell of the Nameless 01:54
2. Eternal Grip of the Nocturnal Empire I: Scent of the Blood Altar 05:02
3. Eternal Grip of the Nocturnal Empire II: Prehistoric Nightmare 03:31
4. Eclipsed Moon of the Eternal Feast 02:23
5. Awaiting the Welkin Dawn 07:31
6. Fields of Everlasting Night 02:58
7. Algol in Flames 05:32
******************************
Total playing time: 28:51

(IMG:https://metalarea.org/images/youtube.png)


Extended info
Cassette out 6/11/21 by Crown & Throne.
Artwork by Sam Thomas (@set33).
All music by Crucifixion Bell, MMXXI.


Technical info
(IMG:https://metalarea.org/images/spectrogram/2021_Jun/7118160d638dbeed833ef4f7ff51af3d.png)
Input File: Crucifixion Bell -1 Awakening Spell of the Nameless.mp3
Channels : 2
Sample Rate : 48000
Precision : 16-bit
Duration : 00:01:54.63 = 5502384 samples ~ 8597.48 CDDA sectors
File Size : 4.59M
Bit Rate : 320k
Sample Encoding: MPEG audio (layer I, II or III)
Comments :
Title=Awakening Spell of the Nameless
Artist=Crucifixion Bell
Album=Eternal Grip of the Nocturnal Empire
Tracknumber=1
Year=2021
Genre=Raw Black Metal



Register


Go to the top of the page
  Insert nick Quick quote
+Quote Post
 
Start new topic
Replies (1 - 2)
post Jun 10 2021, 21:02:56
Post #2

Пять Литров
*****
Group: Металариец
Posts: 431
Releases: 73
From: italy
On Forums: 12 years 11 months
Thanks: 1640 time(s)
Italy


this is pretty damn solid


Thanks:
Go to the top of the page
  Insert nick Quick quote
+Quote Post
post Jun 11 2021, 08:39:51
Post #3

Литр
*
Group: Подсевший
Posts: 82
Releases: 0
From: Калуга
On Forums: 3 years 4 months
Thanks: 29 time(s)
Russian Federation


звеняще-шипящий, гремяще-лязгующе-стучащий альбом, в общем то что надо.
Go to the top of the page
  Insert nick Quick quote
+Quote Post

Reply to this topicStart new topic
2 User(s) are reading this topic (2 Guests and 0 Anonymous Users)
0 Members:

 



- Lo-Fi Version Support form
Copyrights and abuse reports form
Time is now: 25th June 2021 - 05:16:22