Welcome Guest ( Log In | Register )

> Releases Upload / Добавление релизов

Добавить релиз тут / Click here to add release
Рекомендованные обменники / Recommended file shares

> Silvertrain - Steel Against Steel (2021), Heavy Metal (D5)
post Jun 10 2021, 16:22:21
Post #1

Пять Литров
*****
Group: Металариец
Posts: 441
Releases: 384
On Forums: 1 month 4 weeks
Thanks: 8599 time(s)
United States


(IMG:https://metalarea.org/images/audiocovers/2021_Jun/acov_tid351913_thumb.jpg)

*Artist: Silvertrain
*Album: Steel Against Steel
*Year: 2021
*Genre: Heavy Metal
*Country: France (IMG:https://metalarea.org/forum/style_images/flags/France.png)
*Format: mp3@CBR320kbps
*Size: 103MB

Tracklist:
01. Never Forget
02. Empire Of The Lords
03. Ephemeral Stories
04. Take Your Chance
05. Whisky Baby
06. A Lot Of Blood To Take
07. Steel Against Steel
08. Rock N' Roll Dome
09. Sunlight Lady
10. Adventures Of The Night
******************************
Total playing time: 40:26



Technical info
(IMG:https://metalarea.org/images/spectrogram/2021_Jun/b90582502162a73812dccf2069058fd2.png)
Input File: 02. Empire Of The Lords.mp3
Channels : 2
Sample Rate : 44100
Precision : 16-bit
Duration : 00:05:38.60 = 14932040 samples = 25394.6 CDDA sectors
File Size : 13.6M
Bit Rate : 322k
Sample Encoding: MPEG audio (layer I, II or III)
Comments :
Title=Empire Of The Lords
Artist=Silvertrain
Album=Steel Against Steel
Tracknumber=02/10
Year=2021-06-10
Genre=Heavy Metal
Discnumber=1



Register


Go to the top of the page
  Insert nick Quick quote
+Quote Post
 
Start new topic
Replies (1 - 3)
post Jun 11 2021, 14:00:01
Post #2

Маньяк
**********
Group: Металариец
Posts: 1,412
Releases: 5
From: Нью-Васюки
On Forums: 15 years 1 month
Thanks: 421 time(s)
Russian Federation


Яндекс музык
Go to the top of the page
  Insert nick Quick quote
+Quote Post
post Jun 12 2021, 22:12:00
Post #3

MDM-Thrash Metal
**************
Group: Металариец
Posts: 10,408
Releases: 1232
From: Одесса
On Forums: 13 years 10 months
Thanks: 30230 time(s)
Ukraine


Олд Скулище!
Go to the top of the page
  Insert nick Quick quote
+Quote Post
post Jun 13 2021, 19:30:00
Post #4

Два Литра
**
Group: Завсегдатай
Posts: 185
Releases: 0
From: Odessa
On Forums: 13 years 5 months
Thanks: 43 time(s)
Ukraine


Go to the top of the page
  Insert nick Quick quote
+Quote Post

Reply to this topicStart new topic
1 User(s) are reading this topic (1 Guests and 0 Anonymous Users)
0 Members:

 



- Lo-Fi Version Support form
Copyrights and abuse reports form
Time is now: 25th June 2021 - 05:29:15