Welcome Guest ( Log In | Register )

> Releases Upload / Добавление релизов

Добавить релиз тут / Click here to add release
Рекомендованные обменники / Recommended file shares

 
Reply to this topicStart new topic
> Ironwill - Breakout (2021), Heavy Metal
post Jun 10 2021, 16:25:57
Post #1

Правь статус, ####!111
**************
Group: Металариец
Posts: 4,071
Releases: 3726
From: Одесса
On Forums: 13 years 2 weeks
Thanks: 40484 time(s)
Ukraine


(IMG:http://metalarea.org/images/audiocovers/2021_Jun/acov_tid351914_thumb.jpg)

*Artist: Ironwill
*Album: Breakout
*Year: 2021
*Genre: Heavy Metal
*Country: Italy (IMG:http://metalarea.org/forum/style_images/flags/Italy.png)
*Format: mp3@CBR320kbps
*Size: 90MB

Tracklist:
1. As Fast as Rock and Roll 03:10
2. Breakout 03:47
3. Gravity 03:56
4. Prince 04:07
5. Save Me 03:47
6. Sad Night 03:44
7. Step by Step 03:10
8. True or Not 03:49
9. Try on the Other Side 04:58
10. Wind and Talk 03:51
******************************
Total playing time: 38:19

(IMG:http://metalarea.org/images/youtube.png)

Extended info
Line - up:

Tony Franklin - Bass (Freakshow, Marco Ferrigno, The Cage, ex-Sir Lord Baltimore, Kenny Wayne Shepherd Band, Rated X, Roy Harper, VHF (aka Vinciguerra Hoekstra Franklin), ex-Marty Friedman, ex-Menchen, ex-The Jimmy Whip Project, ex-Blue Murder, ex-Docker's Guild, ex-Donna Lewis, ex-Driver, ex-Gary Hoey, ex-Lana Lane, ex-Legacy X, ex-Pearl, ex-Rainmaker, ex-The Firm, ex-Heaven & Earth (live), ex-Whitesnake (live))
Naraccio - Drums (Burning Rome, I-Dea)
Max Bindi - Guitars
Kifrah - Vocals (female) (Oye Como Band)
Piero Leporale - Vocals (lead) (ex-Dragon Rouge, ex-Ira, ex-Fil di Ferro, ex-Wardrum)
Ironwill - Guitars (Feary Tales, NIB, Sharpeners)


Technical info
(IMG:http://metalarea.org/images/spectrogram/2021_Jun/1545392a4670400277559cb3985ae0d4.png)
Input File: 10. Wind And Talk.mp3
Channels : 2
Sample Rate : 44100
Precision : 16-bit
Duration : 00:03:51.04 = 10188952 samples = 17328.1 CDDA sectors
File Size : 9.29M
Bit Rate : 322k
Sample Encoding: MPEG audio (layer I, II or III)
Comments :
Title=Wind And Talk
Artist=Ironwill
Album=Breakout
Tracknumber=10
Year=2021
Genre=137



Register


Go to the top of the page
  Insert nick Quick quote
+Quote Post

Reply to this topicStart new topic
2 User(s) are reading this topic (2 Guests and 0 Anonymous Users)
0 Members:

 



- Lo-Fi Version Support form
Copyrights and abuse reports form
Time is now: 18th June 2021 - 06:46:59