Welcome Guest ( Log In | Register )

> Releases Upload / Добавление релизов

Добавить релиз тут / Click here to add release
Рекомендованные обменники / Recommended file shares

 
Reply to this topicStart new topic
> Mr. Bungle - The Night They Come Home [live] (2021), Avant-Garde Metal/Fusion/Experimental (D4)
post Jun 10 2021, 17:26:47
Post #1

Правь статус, ####!111
**************
Group: Металариец
Posts: 4,162
Releases: 3812
From: Одесса
On Forums: 13 years 1 month
Thanks: 41700 time(s)
Ukraine


(IMG:http://metalarea.org/images/audiocovers/2021_Jun/acov_tid351917_thumb.jpg)

*Artist: Mr. Bungle
*Album: The Night They Come Home [live]
*Year: 2021
*Genre: Avant-Garde Metal/Fusion/Experimental
*Country: United States (IMG:http://metalarea.org/forum/style_images/flags/United%20States.png)
*Format: mp3@CBR320kbps
*Size: 155MB

Tracklist:
1. Won't You Be My Neighbor? (Fred Rogers cover) 01:43
2. Anarchy up Your Anus 02:18
3. Raping Your Mind 06:03
4. Bungle Grind 06:28
5. Methematics 08:22
6. Hell Awaits (Slayer cover) / Summer Breeze (Seals & Croft cover) 04:47
7. Eracist 03:50
8. World up My Ass (Circle Jerks cover) 01:19
9. Glutton for Punishment 04:42
10. Hypocrites / Habla Español o muere (S.O.D. cover) 03:54
11. Spreading the Thighs of Death 06:05
12. Loss for Words (Corrosion of Conformity cover) 04:11
13. Sudden Death 07:31
14. Loss of Control (Van Halen cover) 03:29
******************************
Total playing time: 1:04:42



Extended info
Line - up:

Trevor Dunn - Bass, Vocals (backing) (Fantômas, MadLove, Suit of Lights, Tomahawk, Trevor Dunn, Trevor Dunn's Trio-Convulsant, ex-Melvins, ex-Obake (live), ex-David Krakauer's Klezmer Madness, ex-Electric Masada, ex-Secret Chiefs 3, ex-Slobber Pup, ex-The Rob Price Quartet, ex-The Nels Cline Singers (live))
Trey Spruance - Guitars (ex-Scourge, ex-Faxed Head, Secret Chiefs 3, ex-Asva, ex-Faith No More (live), ex-Holy Vehm, ex-Noddingturd Fan, ex-Pop-O-Pies, ex-The Three Doctors Band, ex-Weird Little Boy)
Mike Patton - Vocals, Keyboards (Dead Cross, Faith No More, Fantômas, Maldoror, Mike Patton, Mike Patton's Mondo Cane, Peeping Tom, Tētēma, Tomahawk, ex-Melvins, ex-Hemophiliac, ex-House of Discipline, ex-Kaada/Patton, ex-Lovage, ex-Moonchild Trio, ex-Moonraker, ex-Painkiller, ex-Patton & Rahzel, ex-Weird Little Boy, ex-Naked City (live), ex-The Dillinger Escape Plan (live))
Dave Lombardo - Drums (Dead Cross, Fantômas, Suicidal Tendencies, ex-Grip Inc., Beloved Ghouls, Misfits, Satanic Planet, ex-Melvins, ex-Slayer, ex-Testament, ex-Metal Allegiance (live), ex-Voodoocult, ex-Escape, ex-Pap Smear, ex-Philm, ex-Sabotage)
Scott Ian - Guitars (Anthrax, Motor Sister, Posehn (live), ex-S.O.D., The Damned Things, ex-Altitudes & Attitude (live), ex-Damnocracy, ex-Doom Squad, ex-Four-X, ex-Pearl, ex-Slam Jam, ex-Roadrunner United (live))


Technical info
(IMG:http://metalarea.org/images/spectrogram/2021_Jun/1646be80fab07fa594d7493deca9bf61.png)
Input File: 10 - Hypocrites_Habla Español O Muere (Live).mp3
Channels : 2
Sample Rate : 44100
Precision : 16-bit
Duration : 00:03:54.54 = 10343346 samples = 17590.7 CDDA sectors
File Size : 9.41M
Bit Rate : 321k
Sample Encoding: MPEG audio (layer I, II or III)
Comments :
Title=Hypocrites/Habla Español O Muere (Live)
Artist=Mr. Bungle
Album=The Night They Came Home (Live)
Tracknumber=10
Year=2021-06-11
Genre=Avant-garde Metal/Fusion/Experimental



Register


Go to the top of the page
  Insert nick Quick quote
+Quote Post

Reply to this topicStart new topic
1 User(s) are reading this topic (1 Guests and 0 Anonymous Users)
0 Members:

 



- Lo-Fi Version Support form
Copyrights and abuse reports form
Time is now: 29th July 2021 - 14:12:49