Welcome Guest ( Log In | Register )

> Releases Upload / Добавление релизов

Добавить релиз тут / Click here to add release
Рекомендованные обменники / Recommended file shares

 
Reply to this topicStart new topic
> Varego - Varego (2021), Progressive Metal/Rock (D4)
post Jun 10 2021, 18:33:42
Post #1

Правь статус, ####!111
**************
Group: Металариец
Posts: 4,162
Releases: 3812
From: Одесса
On Forums: 13 years 1 month
Thanks: 41700 time(s)
Ukraine


(IMG:http://metalarea.org/images/audiocovers/2021_Jun/acov_tid351919_thumb.jpg)

*Artist: Varego
*Album: Varego
*Year: 2021
*Genre: Progressive Metal/Rock
*Country: Italy (IMG:http://metalarea.org/forum/style_images/flags/Italy.png)
*Format: mp3@CBR320kbps
*Size: 83MB

Tracklist:
1. Tunnel
2. Limbo
3. Death
4. Needles
5. One
6. Wave
7. Raptus (Un passo e muori)
******************************
Total playing time: 35:18



Extended info
Line - up:

Simon Lepore - Drums
Alberto Pozzo - Guitars
Davide Marcenaro - Vocals, Bass


Technical info
(IMG:http://metalarea.org/images/spectrogram/2021_Jun/61b17ff4ba149bece9b1641f32682284.png)
Input File: 03. Death.mp3
Channels : 2
Sample Rate : 44100
Precision : 16-bit
Duration : 00:05:53.77 = 15601345 samples = 26532.9 CDDA sectors
File Size : 14.2M
Bit Rate : 320k
Sample Encoding: MPEG audio (layer I, II or III)
Comments :
Title=Death
Artist=Varego
Album=Varego
Tracknumber=3
Year=2021
Genre=Progressive Metal/Rock



Register


Go to the top of the page
  Insert nick Quick quote
+Quote Post

Reply to this topicStart new topic
1 User(s) are reading this topic (1 Guests and 0 Anonymous Users)
0 Members:

 



- Lo-Fi Version Support form
Copyrights and abuse reports form
Time is now: 29th July 2021 - 12:43:17