Welcome Guest ( Log In | Register )

> Releases Upload / Добавление релизов

Добавить релиз тут / Click here to add release
Рекомендованные обменники / Recommended file shares

> King Gizzard & The Lizard Wizard - Butterfly 3000 (2021), Psychedelic/Garage Rock/Doom/Thrash/Speed Metal/Various (D4)
post Jun 10 2021, 19:03:23
Post #1

Правь статус, ####!111
**************
Group: Металариец
Posts: 4,159
Releases: 3811
From: Одесса
On Forums: 13 years 1 month
Thanks: 41663 time(s)
Ukraine


(IMG:http://metalarea.org/images/audiocovers/2021_Jun/acov_tid351920_thumb.jpg)

*Artist: King Gizzard & The Lizard Wizard
*Album: Butterfly 3000
*Year: 2021
*Genre: Psychedelic/Garage Rock/Doom/Thrash/Speed Metal/Various
*Country: Australia (IMG:http://metalarea.org/forum/style_images/flags/Australia.png)
*Format: mp3@CBR320kbps
*Size: 104MB

Tracklist:
1. Yours 04:35
2. Shanghai 04:00
3. Dreams 04:04
4. Blue Morpho 03:50
5. Interior People 05:15
6. Catching Smoke 06:28
7. 2.02 Killer Year 03:19
8. Black Hot Soup 05:12
9. Ya Love 04:15
10. Butterfly 3000 02:51
******************************
Total playing time: 43:49



Extended info
Line - up:

Lucas Skinner - Bass (Sambrose Automobile, The Houses)
Michael Cavanagh - Drums
Cook Craig - Guitars, Bass (The Murlocs)
Joey Walker - Guitars, Keyboards (Love Migrate)
Ambrose Kenny-Smith - Harmonica, Keyboards, Vocals (backing) (Sambrose Automobile, The Murlocs)
Stu Mackenzie - Vocals, Guitars, Bass, Keyboards, Piano, Mellotron, Flute


Technical info
(IMG:http://metalarea.org/images/spectrogram/2021_Jun/9162e7262c0292057284a2e43090711a.png)
Input File: 10. Butterfly 3000.mp3
Channels : 2
Sample Rate : 44100
Precision : 16-bit
Duration : 00:02:51.11 = 7546127 samples = 12833.5 CDDA sectors
File Size : 6.85M
Bit Rate : 320k
Sample Encoding: MPEG audio (layer I, II or III)
Comments :
Title=Butterfly 3000
Artist=King Gizzard & The Lizard Wizard
Album=Butterfly 3000
Tracknumber=10
Year=2021
Genre=Psychedelic/Garage Rock, Doom/Thrash/Speed Metal, Various



Register


Go to the top of the page
  Insert nick Quick quote
+Quote Post
 
Start new topic
Replies (1 - 3)
post Jun 10 2021, 19:54:27
Post #2

melofags sniper
**************
Group: Металариец
Posts: 6,286
Releases: 0
On Forums: 13 years 4 months
Thanks: 6936 time(s)
Unknown


This overrated band sounds more and more like supermarket music.
Go to the top of the page
  Insert nick Quick quote
+Quote Post
post Jun 10 2021, 20:06:17
Post #3

Маньяк
**********
Group: Металариец
Posts: 1,279
Releases: 37
From: великий город Питер
On Forums: 15 years 7 months
Thanks: 2134 time(s)
Russian Federation


что-то да, куда-то не в ту степь их понесло...... раньше было сильно интереснее
ну и в неформат это конечно
Go to the top of the page
  Insert nick Quick quote
+Quote Post
post Jun 12 2021, 12:57:23
Post #4

Правь статус, ####!111
**************
Group: Металариец
Posts: 49,004
Releases: 848
On Forums: 12 years 1 month
Thanks: 44035 time(s)
Russian Federation


Ну так то они всегда экспериментировали и никогда не ограничивали себя вообще никакими жанровыми рамками. И это в них хорошо. На сабже они в очередной раз решили сменить вектор, сделав упор на синтезаторы и электронное звучание, снабдив музыкальное полотно лёхким налётом этники и специфишным вокалом. Blue Morpho - просто шикарнейшая песня (IMG:style_emoticons/default/20.gif)
Go to the top of the page
  Insert nick Quick quote
+Quote Post

Reply to this topicStart new topic
1 User(s) are reading this topic (1 Guests and 0 Anonymous Users)
0 Members:

 



- Lo-Fi Version Support form
Copyrights and abuse reports form
Time is now: 26th July 2021 - 22:02:15