Welcome Guest ( Log In | Register )

> Releases Upload / Добавление релизов

Добавить релиз тут / Click here to add release
Рекомендованные обменники / Recommended file shares

 
Reply to this topicStart new topic
> Dimonsium Chaotic - Nebulous And Vileness Stars [compilation] (2021), Black Metal
post Jun 10 2021, 19:23:05
Post #1

Правь статус, ####!616
**************
Group: Металариец
Posts: 6,350
Releases: 4838
From: 55°35’N 38°08’E
On Forums: 12 years 11 months
Thanks: 89425 time(s)
Unknown


(IMG:https://metalarea.org/images/audiocovers/2021_Jun/acov_tid351921_thumb.jpg)

*Artist: Dimonsium Chaotic
*Album: Nebulous And Vileness Stars [compilation]
*Year: 2021
*Genre: Black Metal
*Country: Slovakia (IMG:https://metalarea.org/forum/style_images/flags/Slovakia.png)
*Format: mp3@CBR320kbps
*Size: 136MB

Tracklist:
1.Zahadum 01:02
2.Abysmal Dimension 04:39
3.Supernova of Sinners 06:25
4.In Viscera Tyrannidae 04:14
5.Paraidolia 03:11
6.Detrimentum Hypocrita 06:03
7.Aeternum Ater 04:17
8.VirgoHI 21 04:13
9.Majestic Desolate Eye (Darkthrone cover) 03:00
10.The Horny and the Horned (Impaled Nazarene cover) 03:30
11.Demoltia Universa 03:06
12.Funeral Tears of Ravenous 02:36
13.Dimonsium Chaotic 03:21
14.Lunare Anime Sathanas 04:09
15.Last Groan of Jesus Christ 05:08
******************************
Total playing time: 58:54




Extended info
The complete discography with remastered sound.


Technical info
(IMG:https://metalarea.org/images/spectrogram/2021_Jun/39842bf47767f233f2b332d48c0a0bba.png)
Input File: 02 Abysmal Dimension.mp3
Channels : 2
Sample Rate : 44100
Precision : 16-bit
Duration : 00:04:40.00 = 12347956 samples = 20999.9 CDDA sectors
File Size : 11.3M
Bit Rate : 324k
Sample Encoding: MPEG audio (layer I, II or III)
Comments :
Title=Abysmal Dimension
Artist=Dimonsium Chaotic
Album=Nebulous and Vileness Stars
Tracknumber=2
Year=2021
Genre=Black Metal



Register


Go to the top of the page
  Insert nick Quick quote
+Quote Post

Reply to this topicStart new topic
2 User(s) are reading this topic (2 Guests and 0 Anonymous Users)
0 Members:

 



- Lo-Fi Version Support form
Copyrights and abuse reports form
Time is now: 18th June 2021 - 07:20:34