Welcome Guest ( Log In | Register )

> Releases Upload / Добавление релизов

Добавить релиз тут / Click here to add release
Рекомендованные обменники / Recommended file shares

> Below The Frostline - Below The Frostline (2021), Funeral Doom Metal
post Jun 10 2021, 19:43:54
Post #1

Правь статус, ####!111
**************
Group: Металариец
Posts: 26,313
Releases: 18927
From: Г.Харьков
On Forums: 9 years 1 month
Thanks: 377446 time(s)
Unknown


(IMG:https://metalarea.org/images/audiocovers/2021_Jun/acov_tid351922_thumb.jpg)

*Artist: Below The Frostline
*Album: Below The Frostline
*Year: 2021
*Genre: Funeral Doom Metal
*Country: Canada (IMG:https://metalarea.org/forum/style_images/flags/Canada.png)
*Format: mp3@CBR320kbps
*Size: 92MB

Tracklist:
1. Once More 13:11
2. Windswept 05:26
3. Answered By None 07:39
4. The Place That People Go 13:45
******************************
Total playing time: 40:01



Technical info
(IMG:https://metalarea.org/images/spectrogram/2021_Jun/b2637f7245e7af04204d4fd8fdcfd495.png)
Input File: Below The Frostline - Below The Frostline - 03 Answered By None.mp3
Channels : 2
Sample Rate : 44100
Precision : 16-bit
Duration : 00:07:39.10 = 20246354 samples = 34432.6 CDDA sectors
File Size : 18.5M
Bit Rate : 322k
Sample Encoding: MPEG audio (layer I, II or III)
Comments :
Title=Answered By None
Artist=Below The Frostline
Album=Below The Frostline
Tracknumber=3
Year=2021



Register


Go to the top of the page
  Insert nick Quick quote
+Quote Post
 
Start new topic
Replies (1 - 2)
post Jun 11 2021, 12:05:25
Post #2

Три Литра
***
Group: Завсегдатай
Posts: 278
Releases: 0
On Forums: 3 years 4 months
Thanks: 112 time(s)
Belarus


Смердящие примеси Sludge, превращают этот перспективный на первый взгляд материал, в испражнения.


Thanks:
Go to the top of the page
  Insert nick Quick quote
+Quote Post
post Jun 11 2021, 12:10:12
Post #3

Ледоруб
**************
Group: Металариец
Posts: 28,181
Releases: 0
From: Санкт-Петербург
On Forums: 11 years 9 months
Thanks: 10173 time(s)
Russian Federation


ЦИТАТА(GRAF @ 11th June 2021 - 14:05:25) *
в испражнения

...превращаются слова, которые ты тут пишешь.
Go to the top of the page
  Insert nick Quick quote
+Quote Post

Reply to this topicStart new topic
2 User(s) are reading this topic (2 Guests and 0 Anonymous Users)
0 Members:

 



- Lo-Fi Version Support form
Copyrights and abuse reports form
Time is now: 18th June 2021 - 07:32:44