Welcome Guest ( Log In | Register )

> Releases Upload / Добавление релизов

Добавить релиз тут / Click here to add release
Рекомендованные обменники / Recommended file shares

> Grotesque Hysterectomy - Dødsavantgard (2021), Death Metal
post Jun 10 2021, 20:22:47
Post #1

Четыре Литра
****
Group: Металариец
Posts: 393
Releases: 332
On Forums: 1 month 3 weeks
Thanks: 7124 time(s)
United States


(IMG:https://metalarea.org/images/audiocovers/2021_Jun/acov_tid351923_thumb.jpg)

*Artist: Grotesque Hysterectomy
*Album: Dødsavantgard
*Year: 2021
*Genre: Death Metal
*Country: Norway (IMG:https://metalarea.org/forum/style_images/flags/Norway.png)
*Format: mp3@CBR320kbps
*Size: 82MB

Tracklist:
01. Cranium Fear
02. Half Life
03. Post Mortem Intrusion
04. Sexual Patina
05. Worship
06. Forensic Frolic
07. Mer Sykdom
08. Glorious Perversion
09. Exema Erotica
10. Dødsavantgard
******************************
Total playing time: 33:02




Technical info
(IMG:https://metalarea.org/images/spectrogram/2021_Jun/7b15d0089403954a1f10434c00a19d96.png)
Input File: 02. Half Life.mp3
Channels : 2
Sample Rate : 44100
Precision : 16-bit
Duration : 00:03:05.80 = 8193604 samples = 13934.7 CDDA sectors
File Size : 7.47M
Bit Rate : 322k
Sample Encoding: MPEG audio (layer I, II or III)
Comments :
Title=Half Life
Artist=Grotesque Hysterectomy
Album=Dødsavantgard
Tracknumber=2
Year=2021-06-07
Genre=Metal
Discnumber=1



Register


Go to the top of the page
  Insert nick Quick quote
+Quote Post
 
Start new topic
Replies (1 - 1)
post Jun 12 2021, 08:04:51
Post #2

Маньяк
**********
Group: Металариец
Posts: 1,032
Releases: 1
From: APATIN, SERBIA, АПАТИН, СЕРБИЯ
On Forums: 13 years 7 months
Thanks: 2256 time(s)



Flac

Register


Thanks:
(1) Occultas,
Go to the top of the page
  Insert nick Quick quote
+Quote Post

Reply to this topicStart new topic
2 User(s) are reading this topic (2 Guests and 0 Anonymous Users)
0 Members:

 



- Lo-Fi Version Support form
Copyrights and abuse reports form
Time is now: 18th June 2021 - 07:43:57