Welcome Guest ( Log In | Register )

> Releases Upload / Добавление релизов

Добавить релиз тут / Click here to add release
Рекомендованные обменники / Recommended file shares

 
Reply to this topicStart new topic
> Pious - The Crawling Head (2021), Stoner/Sludge Metal
post Jun 10 2021, 20:31:53
Post #1

Четыре Литра
****
Group: Металариец
Posts: 393
Releases: 332
On Forums: 1 month 3 weeks
Thanks: 7111 time(s)
United States


(IMG:https://metalarea.org/images/audiocovers/2021_Jun/acov_tid351924_thumb.jpg)

*Artist: Pious
*Album: The Crawling Head
*Year: 2021
*Genre: Stoner/Sludge Metal
*Country: United States (IMG:https://metalarea.org/forum/style_images/flags/United%20States.png)
*Format: mp3@CBR320kbps
*Size: 86MB

Tracklist:
01. The Arbiter 01:50
02. Our God Carries A Bazooka 05:35
03. Maleva 07:43
04. The Belt Or The Switch 03:14
05. Going Out West 03:22
06. Raped By Dragons 04:34
07. The Crawling Head 08:06
******************************
Total playing time: 34:24



Technical info
(IMG:https://metalarea.org/images/spectrogram/2021_Jun/d5b07a57973746a006adcb9988d7d4d2.png)
Input File: 02. Our God Carries A Bazooka.mp3
Channels : 2
Sample Rate : 44100
Precision : 16-bit
Duration : 00:05:35.56 = 14798372 samples = 25167.3 CDDA sectors
File Size : 13.5M
Bit Rate : 321k
Sample Encoding: MPEG audio (layer I, II or III)
Comments :
Title=Our God Carries a Bazooka
Artist=Pious
Album=The Crawling Head
Tracknumber=2
Year=2021-06-04
Genre=Metal
Discnumber=1



Register


Go to the top of the page
  Insert nick Quick quote
+Quote Post

Reply to this topicStart new topic
2 User(s) are reading this topic (2 Guests and 0 Anonymous Users)
0 Members:

 



- Lo-Fi Version Support form
Copyrights and abuse reports form
Time is now: 18th June 2021 - 05:49:17