Welcome Guest ( Log In | Register )

> Releases Upload / Добавление релизов

Добавить релиз тут / Click here to add release
Рекомендованные обменники / Recommended file shares

 
Reply to this topicStart new topic
> Nameless Mist - Nameless Mist (2021), Atmospheric/Depressive Black Metal
post Jun 10 2021, 21:20:18
Post #1

Правь статус, ####!616
**************
Group: Металариец
Posts: 6,350
Releases: 4838
From: 55°35’N 38°08’E
On Forums: 12 years 11 months
Thanks: 89423 time(s)
Unknown


(IMG:https://metalarea.org/images/audiocovers/2021_Jun/acov_tid351925_thumb.jpg)

*Artist: Nameless Mist
*Album: Nameless Mist
*Year: 2021
*Genre: Atmospheric/Depressive Black Metal
*Country: United States (IMG:https://metalarea.org/forum/style_images/flags/United%20States.png)
*Format: mp3@CBR320kbps
*Size: 100MB

Tracklist:
1.Despair Calling 08:41
2.The Afterworld 06:23
3.Embryonic 06:37
4.Ritual of Disembowelment 04:48
5.Unearthed 06:21
6.Ritual of Bereavement 03:51
7.The Final Curse 06:31
******************************
Total playing time: 43:12



Technical info
(IMG:https://metalarea.org/images/spectrogram/2021_Jun/216914285bb90ba8c7fb54fffb4e24b2.png)
Input File: 01 Despair Calling.mp3
Channels : 2
Sample Rate : 44100
Precision : 16-bit
Duration : 00:08:41.20 = 22984964 samples = 39090.1 CDDA sectors
File Size : 21.0M
Bit Rate : 323k
Sample Encoding: MPEG audio (layer I, II or III)
Comments :
Title=Despair Calling
Artist=Nameless Mist
Album=Nameless Mist
Tracknumber=1
Year=2021
Genre=Black Metal



Register


Go to the top of the page
  Insert nick Quick quote
+Quote Post

Reply to this topicStart new topic
1 User(s) are reading this topic (1 Guests and 0 Anonymous Users)
0 Members:

 



- Lo-Fi Version Support form
Copyrights and abuse reports form
Time is now: 18th June 2021 - 06:37:49