Welcome Guest ( Log In | Register )

> Releases Upload / Добавление релизов

Добавить релиз тут / Click here to add release
Рекомендованные обменники / Recommended file shares

> Innersiege - Fury Of Ages (2021), Melodic Power Metal
post Jun 10 2021, 22:28:00
Post #1

Правь статус, ####!111
**************
Group: Металариец
Posts: 26,313
Releases: 18927
From: Г.Харьков
On Forums: 9 years 1 month
Thanks: 377434 time(s)
Unknown


(IMG:https://metalarea.org/images/audiocovers/2021_Jun/acov_tid351926_thumb.jpg)

*Artist: Innersiege
*Album: Fury Of Ages
*Year: 2021
*Genre: Melodic Power Metal
*Country: United States (IMG:https://metalarea.org/forum/style_images/flags/United%20States.png)
*Format: mp3@CBR320kbps
*Size: 109MB

Tracklist:
1. Calling For Violence
2. Reborn
3. Firewind
4. Virtuous Iniquity
5. Echoes Into Eternity
6. World Of Darkness
7. Power. Metal. Glory
8. Iron Lotus
9. Stronghold
10. Hero
11. World On Fire
******************************
Total playing time: 47:24



Extended info
Wade Helm Drums (2008-present)
See also: ex-Strangeland
Kevin Grose Guitars (2008-present)
See also: ex-Strangeland
Jeremy Ray Vocals (2008-present)
See also: ex-Strangeland
Ravn Furfjord Bass (2010-present)
See also: Dödsmarsch, Frosthardr, Koronatizor, Dark Valentine, WarHorse, ex-A Hill to Die Upon (live), ex-Antestor (live)
J.L. Prater Guitars (2011-present)
See also: Born of Silence, ex-7th Overture (live)


Technical info
(IMG:https://metalarea.org/images/spectrogram/2021_Jun/20f44600bc5cff52a52e2af5dc3d8dc6.png)
Input File: 08 - Iron Lotus.mp3
Channels : 2
Sample Rate : 44100
Precision : 16-bit
Duration : 00:04:36.00 = 12171600 samples = 20700 CDDA sectors
File Size : 11.2M
Bit Rate : 325k
Sample Encoding: MPEG audio (layer I, II or III)
Comments :
Title=Iron Lotus
Artist=InnerSiege
Album=Fury Of Ages
Tracknumber=8
Year=2021-06-11
Genre=Rock
Discnumber=1



Register


Go to the top of the page
  Insert nick Quick quote
+Quote Post
 
Start new topic
Replies (1 - 4)
post Jun 11 2021, 17:41:11
Post #2

Шесть Литров
******
Group: Металариец
Posts: 654
Releases: 0
On Forums: 11 years 11 months
Thanks: 167 time(s)
Ukraine


спасибо за новый альбом!!!


Go to the top of the page
  Insert nick Quick quote
+Quote Post
post Jun 11 2021, 18:44:34
Post #3

Тридцать лет на борту "Тяжёлого" крейсера
**************
Group: Металариец
Posts: 2,600
Releases: 0
From: Питер
On Forums: 14 years 6 days
Thanks: 808 time(s)
Russian Federation


Без изысков, но -- очень неплохой вокал и музон без новомодных испражнений
Go to the top of the page
  Insert nick Quick quote
+Quote Post
post Jun 12 2021, 20:49:04
Post #4

MDM-Thrash Metal
**************
Group: Металариец
Posts: 10,380
Releases: 1229
From: Одесса
On Forums: 13 years 10 months
Thanks: 30203 time(s)
Ukraine




Ну, такое...
Go to the top of the page
  Insert nick Quick quote
+Quote Post
post Yesterday, 10:30:31
Post #5

Ёлд ХеллоВяйне
Group Icon
Group: V.I.P
Posts: 31,676
Releases: 144
From: Питер
On Forums: 14 years 7 months
Thanks: 19758 time(s)
Russian Federation


Второсорт, конечно, но хоть какой-то драйв есть.
Go to the top of the page
  Insert nick Quick quote
+Quote Post

Reply to this topicStart new topic
2 User(s) are reading this topic (2 Guests and 0 Anonymous Users)
0 Members:

 



- Lo-Fi Version Support form
Copyrights and abuse reports form
Time is now: 18th June 2021 - 06:21:39