Welcome Guest ( Log In | Register )

> Releases Upload / Добавление релизов

Добавить релиз тут / Click here to add release
Рекомендованные обменники / Recommended file shares

> Angel Massacre - Blood Of Fallen Angels (2021), Black Metal
post Jun 10 2021, 23:02:48
Post #1

Правь статус, ####!616
**************
Group: Металариец
Posts: 6,350
Releases: 4838
From: 55°35’N 38°08’E
On Forums: 12 years 11 months
Thanks: 89423 time(s)
Unknown


(IMG:https://metalarea.org/images/audiocovers/2021_Jun/acov_tid351927_thumb.jpg)

*Artist: Angel Massacre
*Album: Blood Of Fallen Angels
*Year: 2021
*Genre: Black Metal
*Country: United States (IMG:https://metalarea.org/forum/style_images/flags/United%20States.png)
*Format: mp3@CBR320kbps
*Size: 71MB

Tracklist:
1.In The Name Of Satan 01:18
2.Dehumization Of The Christian Race 02:52
3.Return To The Fog 03:12
4.Enter The Forest Of Hate 03:19
5.1974 03:25
6.Burn The WatchTower 03:11
7.Drag Me To My Grave 04:27
8.Curse Of The Athame 03:35
9.Blood Of The Fallen Angels 05:17
******************************
Total playing time: 30:36



Angel Massacre

Technical info
(IMG:https://metalarea.org/images/spectrogram/2021_Jun/29328b47f2c9b636cef06007165a7fe2.png)
Input File: 02 Dehumization Of The Christian Race.mp3
Channels : 2
Sample Rate : 44100
Precision : 16-bit
Duration : 00:02:52.89 = 7624493 samples = 12966.8 CDDA sectors
File Size : 7.04M
Bit Rate : 326k
Sample Encoding: MPEG audio (layer I, II or III)
Comments :
Title=Dehumization Of The Christian Race
Artist=Angel Massacre
Album=Blood Of Fallen Angels
Tracknumber=2
Year=2021
Genre=Black Metal



Register


Go to the top of the page
  Insert nick Quick quote
+Quote Post
 
Start new topic
Replies (1 - 2)
post Jun 11 2021, 14:24:13
Post #2

Два Литра
**
Group: Завсегдатай
Posts: 121
Releases: 0
On Forums: 12 years 1 month
Thanks: 58 time(s)
Bulgaria


Альбом старый, с далекого 2008 года.

https://www.metal-archives.com/bands/Angel_Massacre/122450
Go to the top of the page
  Insert nick Quick quote
+Quote Post
post Jun 11 2021, 14:37:51
Post #3

Правь статус, ####!616
**************
Group: Металариец
Posts: 6,350
Releases: 4838
From: 55°35’N 38°08’E
On Forums: 12 years 11 months
Thanks: 89423 time(s)
Unknown


ЦИТАТА(Bregon @ 11th June 2021 - 16:24:13) *
Альбом старый, с далекого 2008 года.



The Blood of Fallen Angels 2008 demo
Blood Of Fallen Angels 2021 Full-length
INFO
Go to the top of the page
  Insert nick Quick quote
+Quote Post

Reply to this topicStart new topic
2 User(s) are reading this topic (2 Guests and 0 Anonymous Users)
0 Members:

 



- Lo-Fi Version Support form
Copyrights and abuse reports form
Time is now: 18th June 2021 - 06:33:19