Welcome Guest ( Log In | Register )

> Releases Upload / Добавление релизов

Добавить релиз тут / Click here to add release
Рекомендованные обменники / Recommended file shares

 
Reply to this topicStart new topic
> Forgotten North - Geister Und Dämonen (2021), Folk Metal
post Jun 10 2021, 23:10:58
Post #1

Правь статус, ####!111
**************
Group: Металариец
Posts: 26,313
Releases: 18927
From: Г.Харьков
On Forums: 9 years 1 month
Thanks: 377440 time(s)
Unknown


(IMG:https://metalarea.org/images/audiocovers/2021_Jun/acov_tid351928_thumb.jpg)

*Artist: Forgotten North
*Album: Geister Und Dämonen
*Year: 2021
*Genre: Folk Metal
*Country: Germany (IMG:https://metalarea.org/forum/style_images/flags/Germany.png)
*Format: mp3@CBR320kbps
*Size: 132MB

Tracklist:
1. Rette sich wer kann 05:09
2. Helden müssen sterben 04:13
3. Geister und Dämonen 05:00
4. Hinter den Wolken 04:50
5. Geliebter Feind 03:31
6. Dreischeußlichkeit 04:47
7. Auf der Düne 05:16
8. Hebt die Hörner 03:12
9. Bis der Letzte fällt 03:53
10. Kostbare Momente 04:05
11. Die letzte Schlacht 04:50
12. Freya 03:59
13. Wo der Met in Strömen fließt 04:21
******************************
Total playing time: 57:06

Preview 1


Extended info
Petter Thoresson Drums (1995-present)
See also: Squealer
Börje Lokisson Vocals (1995-present)
See also: ex-Titan Steele, ex-Ritual Steel, ex-Carpediem
Iven Gandulf Guitars (2014-2016), Citern (2018-present)
Thor Ragnarsson Guitars, Vocals (backing) (2015-present)
Nigolas Martinsson Flute (2018-present)


Technical info
(IMG:https://metalarea.org/images/spectrogram/2021_Jun/69fac0721e4b78a9e19b49712682681d.png)
Input File: 07 - Auf der Düne.mp3
Channels : 2
Sample Rate : 44100
Precision : 16-bit
Duration : 00:05:16.00 = 13935600 samples = 23700 CDDA sectors
File Size : 12.8M
Bit Rate : 323k
Sample Encoding: MPEG audio (layer I, II or III)
Comments :
Title=Auf der Düne
Artist=Forgotten North
Album=Geister und Dämonen
Tracknumber=7
Year=2021-06-11
Discnumber=1



Register


Go to the top of the page
  Insert nick Quick quote
+Quote Post

Reply to this topicStart new topic
2 User(s) are reading this topic (2 Guests and 0 Anonymous Users)
0 Members:

 



- Lo-Fi Version Support form
Copyrights and abuse reports form
Time is now: 18th June 2021 - 06:41:49