Welcome Guest ( Log In | Register )

> Releases Upload / Добавление релизов

Добавить релиз тут / Click here to add release
Рекомендованные обменники / Recommended file shares

 
Reply to this topicStart new topic
> Fracture - Cataclysmic Existence (2021), Crossover/Thrash Metal (D10)
post Jun 10 2021, 23:20:12
Post #1

Четыре Литра
****
Group: Металариец
Posts: 393
Releases: 332
On Forums: 1 month 3 weeks
Thanks: 7123 time(s)
United States


(IMG:https://metalarea.org/images/audiocovers/2021_Jun/acov_tid351929_thumb.jpg)

*Artist: Fracture
*Album: Cataclysmic Existence
*Year: 2021
*Genre: Crossover/Thrash Metal
*Country: Canada (IMG:https://metalarea.org/forum/style_images/flags/Canada.png)
*Format: mp3@CBR320kbps
*Size: 75MB

Tracklist:
01. Beast
02. War-Head
03. Cerebral Hijack
04. Resomation
05. On The Attack
06. Cataclysm
07. Corrupt Perception
08. Power Paralysis
09. Onslaughter
10. Carnage
******************************
Total playing time: 30:37



Technical info
(IMG:https://metalarea.org/images/spectrogram/2021_Jun/c7f8086525e6bdf4522cd3380e5009a4.png)
Input File: 02. War-Head.mp3
Channels : 2
Sample Rate : 44100
Precision : 16-bit
Duration : 00:03:04.18 = 8122162 samples = 13813.2 CDDA sectors
File Size : 7.40M
Bit Rate : 322k
Sample Encoding: MPEG audio (layer I, II or III)
Comments :
Title=War-Head
Artist=Fracture
Album=Cataclysmic Existence
Tracknumber=2
Year=2021-06-11
Genre=Alternative / Indie Rock / Metal
Discnumber=1



Register


Go to the top of the page
  Insert nick Quick quote
+Quote Post

Reply to this topicStart new topic
1 User(s) are reading this topic (1 Guests and 0 Anonymous Users)
0 Members:

 



- Lo-Fi Version Support form
Copyrights and abuse reports form
Time is now: 18th June 2021 - 07:30:18