Welcome Guest ( Log In | Register )

> Releases Upload / Добавление релизов

Добавить релиз тут / Click here to add release
Рекомендованные обменники / Recommended file shares

 
Reply to this topicStart new topic
> Slamologist - The Science Of Slammage [ep] (2021), Slam/Brutal Deathcore
post Jun 10 2021, 23:29:08
Post #1

Четыре Литра
****
Group: Металариец
Posts: 393
Releases: 332
On Forums: 1 month 3 weeks
Thanks: 7116 time(s)
United States


(IMG:http://metalarea.org/images/audiocovers/2021_Jun/acov_tid351930_thumb.jpg)

*Artist: Slamologist
*Album: The Science Of Slammage [ep]
*Year: 2021
*Genre: Slam/Brutal Deathcore
*Country: United States (IMG:http://metalarea.org/forum/style_images/flags/United%20States.png)
*Format: mp3@CBR320kbps
*Size: 76MB

Tracklist:
01. Endless Stoichiometric Hell
02. B-Town Laboratories
03. Vibrio Mi-2
04. Gaseous Enthalpy
05. Slammed Into Nonexistence
06. The Science Of Slammage
07. Nefarious Genealogy
******************************
Total playing time: 29:16




Technical info
(IMG:http://metalarea.org/images/spectrogram/2021_Jun/126bf6c7a774d53496a9ae239102d68f.png)
Input File: 02. B-Town Laboratories.mp3
Channels : 2
Sample Rate : 44100
Precision : 16-bit
Duration : 00:03:49.87 = 10137135 samples = 17240 CDDA sectors
File Size : 9.27M
Bit Rate : 323k
Sample Encoding: MPEG audio (layer I, II or III)
Comments :
Title=B-Town Laboratories
Artist=Slamologist
Album=The Science of Slammage
Tracknumber=2
Year=2021-06-11
Genre=Alternative / Indie Rock / Metal
Discnumber=1



Register


Go to the top of the page
  Insert nick Quick quote
+Quote Post

Reply to this topicStart new topic
1 User(s) are reading this topic (1 Guests and 0 Anonymous Users)
0 Members:

 



- Lo-Fi Version Support form
Copyrights and abuse reports form
Time is now: 18th June 2021 - 06:39:47