Welcome Guest ( Log In | Register )

> Releases Upload / Добавление релизов

Добавить релиз тут / Click here to add release
Рекомендованные обменники / Recommended file shares

 
Reply to this topicStart new topic
> Vulture - Vendetta [single] (2017), Speed/Thrash Metal (D)
post Jun 10 2021, 23:41:30
Post #1

Правь статус, ####!616
**************
Group: Металариец
Posts: 6,350
Releases: 4838
From: 55°35’N 38°08’E
On Forums: 12 years 11 months
Thanks: 89423 time(s)
Unknown


(IMG:https://metalarea.org/images/audiocovers/2021_Jun/acov_tid351932_thumb.jpg)

*Artist: Vulture
*Album: Vendetta [single]
*Year: 2017
*Genre: Speed/Thrash Metal
*Country: Germany (IMG:https://metalarea.org/forum/style_images/flags/Germany.png)
*Format: mp3@CBR320kbps
*Size: 26MB

Tracklist:
1.Vendetta 04:37
2.Stormbringer (Deep Purple cover) 04:09
******************************
Total playing time: 8:46

Extended info
7" vinyl, High Roller Records
+ scans


Technical info
(IMG:https://metalarea.org/images/spectrogram/2021_Jun/fd0c2bc7c88ac755a3f38101d18a192e.png)
Input File: 01. Vendetta.mp3
Channels : 2
Sample Rate : 44100
Precision : 16-bit
Duration : 00:04:37.10 = 12220066 samples = 20782.4 CDDA sectors
File Size : 11.2M
Bit Rate : 323k
Sample Encoding: MPEG audio (layer I, II or III)
Comments :
Title=Vendetta
Artist=Vulture
Album=Vendetta
Tracknumber=01
Year=2017
Genre=Speed/Thrash Metal



Register


Go to the top of the page
  Insert nick Quick quote
+Quote Post

Reply to this topicStart new topic
2 User(s) are reading this topic (2 Guests and 0 Anonymous Users)
0 Members:

 



- Lo-Fi Version Support form
Copyrights and abuse reports form
Time is now: 18th June 2021 - 06:36:30