Welcome Guest ( Log In | Register )

> Releases Upload / Добавление релизов

Добавить релиз тут / Click here to add release
Рекомендованные обменники / Recommended file shares

> Verjagen - When The Sun Sets Over This Mortal World (2021), Melodic Death Metal
post Jun 10 2021, 23:43:25
Post #1

Четыре Литра
****
Group: Металариец
Posts: 393
Releases: 332
On Forums: 1 month 3 weeks
Thanks: 7117 time(s)
United States


(IMG:http://metalarea.org/images/audiocovers/2021_Jun/acov_tid351933_thumb.jpg)

*Artist: Verjagen
*Album: When The Sun Sets Over This Mortal World
*Year: 2021
*Genre: Melodic Death Metal
*Country: Finland (IMG:http://metalarea.org/forum/style_images/flags/Finland.png)
*Format: mp3@CBR320kbps
*Size: 105MB

Tracklist:
01. Only Death Left
02. Life Of War
03. Exit Plan
04. Frozen Tomb Of The Draugr
05. Feast For The Dead
06. When The Sun Sets Over This Mortal World
07. Gritty Night
08. Let The Void Become The New Sky
******************************
Total playing time: 42:10




Technical info
(IMG:http://metalarea.org/images/spectrogram/2021_Jun/997edaf28603c2b39c9c4eb2ffe76b5a.png)
Input File: 02. Life Of War.mp3
Channels : 2
Sample Rate : 44100
Precision : 16-bit
Duration : 00:04:05.07 = 10807631 samples = 18380.3 CDDA sectors
File Size : 9.86M
Bit Rate : 322k
Sample Encoding: MPEG audio (layer I, II or III)
Comments :
Title=Life Of War
Artist=Verjagen
Album=When The Sun Sets Over This Mortal World
Tracknumber=2
Year=2021-06-11
Genre=Metal
Discnumber=1



Register


Go to the top of the page
  Insert nick Quick quote
+Quote Post
 
Start new topic
Replies (1 - 2)
post Jun 11 2021, 16:07:31
Post #2

Common dweller of hell
**************
Group: Металариец
Posts: 3,823
Releases: 12
From: Dnipro
On Forums: 12 years 11 months
Thanks: 1506 time(s)
Ukraine


https://www.youtube.com/watch?v=u-1W3EqzsrA&t=24s
Go to the top of the page
  Insert nick Quick quote
+Quote Post
post Jun 13 2021, 14:27:30
Post #3

Old School Metal
**************
Group: Металариец
Posts: 3,887
Releases: 0
From: г. Минск
On Forums: 12 years 3 months
Thanks: 9010 time(s)
Belarus



Lossless: FLAC (tracks)
Register
Go to the top of the page
  Insert nick Quick quote
+Quote Post

Reply to this topicStart new topic
2 User(s) are reading this topic (2 Guests and 0 Anonymous Users)
0 Members:

 



- Lo-Fi Version Support form
Copyrights and abuse reports form
Time is now: 18th June 2021 - 06:47:37