Welcome Guest ( Log In | Register )

> Releases Upload / Добавление релизов

Добавить релиз тут / Click here to add release
Рекомендованные обменники / Recommended file shares

> Enraged Monkeys - No Compromise (2021), Thrash/Death Metal/Hardcore
post Jun 11 2021, 00:08:16
Post #1

Правь статус, ####!111
**************
Group: Металариец
Posts: 26,313
Releases: 18927
From: Г.Харьков
On Forums: 9 years 1 month
Thanks: 377446 time(s)
Unknown


(IMG:https://metalarea.org/images/audiocovers/2021_Jun/acov_tid351935_thumb.jpg)

*Artist: Enraged Monkeys
*Album: No Compromise
*Year: 2021
*Genre: Thrash/Death Metal/Hardcore
*Country: Germany (IMG:https://metalarea.org/forum/style_images/flags/Germany.png)
*Format: mp3@CBR320kbps
*Size: 99MB

Tracklist:
01. Intro
02. The Sky Is Down
03. Beware Men
04. No Compromise
05. You Break First
06. Wake Up
07. Alive but Dead
08. Leave the Sea
09. Worte
10. White Torture
11. Are You Ready
12. Unfasslich
13. Masquerade (Bonustrack) (Live)
******************************
Total playing time: 42:39

(IMG:https://metalarea.org/images/youtube.png)


Extended info


Technical info
(IMG:https://metalarea.org/images/spectrogram/2021_Jun/0e6b7ecee5e5f8c90bc4d165c3efaa9b.png)
Input File: 08 - Leave the Sea.mp3
Channels : 2
Sample Rate : 44100
Precision : 16-bit
Duration : 00:04:00.00 = 10584000 samples = 18000 CDDA sectors
File Size : 9.72M
Bit Rate : 324k
Sample Encoding: MPEG audio (layer I, II or III)
Comments :
Title=Leave the Sea
Artist=Enraged Monkeys
Album=No Compromise
Tracknumber=8
Year=2021-06-11
Discnumber=1



Register


Go to the top of the page
  Insert nick Quick quote
+Quote Post
 
Start new topic
Replies (1 - 1)
post Jun 11 2021, 13:07:33
Post #2

Четыре Литра
****
Group: Металариец
Posts: 363
Releases: 5
On Forums: 14 years 2 months
Thanks: 297 time(s)
Russian Federation


На ютубчике в припеве песни мелодия, которую я 100% знаю и уже слышал. Но не могу вспомнить названия
Go to the top of the page
  Insert nick Quick quote
+Quote Post

Reply to this topicStart new topic
2 User(s) are reading this topic (2 Guests and 0 Anonymous Users)
0 Members:

 



- Lo-Fi Version Support form
Copyrights and abuse reports form
Time is now: 18th June 2021 - 07:16:49