Welcome Guest ( Log In | Register )

> Releases Upload / Добавление релизов

Добавить релиз тут / Click here to add release
Рекомендованные обменники / Recommended file shares

 
Reply to this topicStart new topic
> Alvarez - Digitaria (2021), Melodic Death Metal
post Jun 11 2021, 00:29:15
Post #1

Четыре Литра
****
Group: Металариец
Posts: 393
Releases: 332
On Forums: 1 month 3 weeks
Thanks: 7123 time(s)
United States


(IMG:http://metalarea.org/images/audiocovers/2021_Jun/acov_tid351937_thumb.jpg)

*Artist: Alvarez
*Album: Digitaria
*Year: 2021
*Genre: Melodic Death Metal
*Country: Austria (IMG:http://metalarea.org/forum/style_images/flags/Austria.png)
*Format: mp3@CBR320kbps
*Size: 111MB

Tracklist:
01. Digitaria 03:32
02. The Field Of Reeds 04:32
03. Secret Star Of Isis 04:58
04. Sun Behind The Sun 03:33
05. Black Light In The Dark 08:12
06. Eridanus Supervoid 02:53
07. Demonic Paradise 04:34
08. Astral Rebirth 04:56
09. Key Of Life 04:37
10. Airatigid 03:37
******************************
Total playing time: 45:24



Technical info
(IMG:http://metalarea.org/images/spectrogram/2021_Jun/4d692f7b9fcc23893a37bf69002ef90b.png)
Input File: 02. The Field Of Reeds.mp3
Channels : 2
Sample Rate : 44100
Precision : 16-bit
Duration : 00:04:32.84 = 12032288 samples = 20463.1 CDDA sectors
File Size : 11.0M
Bit Rate : 321k
Sample Encoding: MPEG audio (layer I, II or III)
Comments :
Title=The Field Of Reeds
Artist=Alvarez
Album=DIGITARIA
Tracknumber=2
Year=2021-06-11
Genre=Rock
Discnumber=1



Register


Go to the top of the page
  Insert nick Quick quote
+Quote Post

Reply to this topicStart new topic
2 User(s) are reading this topic (2 Guests and 0 Anonymous Users)
0 Members:

 



- Lo-Fi Version Support form
Copyrights and abuse reports form
Time is now: 18th June 2021 - 07:40:02