Welcome Guest ( Log In | Register )

> Releases Upload / Добавление релизов

Добавить релиз тут / Click here to add release
Рекомендованные обменники / Recommended file shares

> Land Of Confusion - The Morning Star (2021), Death Metal
post Jun 11 2021, 00:38:27
Post #1

Четыре Литра
****
Group: Металариец
Posts: 393
Releases: 332
On Forums: 1 month 3 weeks
Thanks: 7113 time(s)
United States


(IMG:http://metalarea.org/images/audiocovers/2021_Jun/acov_tid351938_thumb.jpg)

*Artist: Land Of Confusion
*Album: The Morning Star
*Year: 2021
*Genre: Death Metal
*Country: Kosovo (IMG:http://metalarea.org/forum/style_images/flags/Kosovo.png)
*Format: mp3@CBR320kbps
*Size: 108MB

Tracklist:
01. Murana
02. In The Depth
03. Arch Of Gods
04. Beyond Vacuity
05. Bane
06. Proverbs Of Hell
07. Thy Warrior
08. The Oracle Of Dodona
09. The Morning Star
10. In The Eyes Of The Raven
******************************
Total playing time: 43:09




Technical info
(IMG:http://metalarea.org/images/spectrogram/2021_Jun/34d75479d6109fcd8344dc81aaafc745.png)
Input File: 02. In The Depth.mp3
Channels : 2
Sample Rate : 44100
Precision : 16-bit
Duration : 00:03:42.87 = 9828391 samples = 16715 CDDA sectors
File Size : 9.00M
Bit Rate : 323k
Sample Encoding: MPEG audio (layer I, II or III)
Comments :
Title=In the Depth
Artist=Land of Confusion
Album=The Morning Star
Tracknumber=2
Year=2021-06-11
Genre=Metal
Discnumber=1



Register


Go to the top of the page
  Insert nick Quick quote
+Quote Post
 
Start new topic
Replies (1 - 1)
post Jun 11 2021, 18:36:58
Post #2

hearer & reader
**************
Group: Металариец
Posts: 9,746
Releases: 172
From: Moscow
On Forums: 13 years 9 months
Thanks: 10917 time(s)
Russian Federation


Melodic Death/Black Metal на архивах - более точно.
Go to the top of the page
  Insert nick Quick quote
+Quote Post

Reply to this topicStart new topic
1 User(s) are reading this topic (1 Guests and 0 Anonymous Users)
0 Members:

 



- Lo-Fi Version Support form
Copyrights and abuse reports form
Time is now: 18th June 2021 - 06:22:29