Welcome Guest ( Log In | Register )

> Releases Upload / Добавление релизов

Добавить релиз тут / Click here to add release
Рекомендованные обменники / Recommended file shares

> After The Funeral - Annihilatification (2021), Deathcore
post Jun 11 2021, 00:54:04
Post #1

Четыре Литра
****
Group: Металариец
Posts: 393
Releases: 332
On Forums: 1 month 3 weeks
Thanks: 7115 time(s)
United States


(IMG:http://metalarea.org/images/audiocovers/2021_Jun/acov_tid351939_thumb.jpg)

*Artist: After The Funeral
*Album: Annihilatification
*Year: 2021
*Genre: Deathcore
*Country: United States (IMG:http://metalarea.org/forum/style_images/flags/United%20States.png)
*Format: mp3@CBR320kbps
*Size: 92MB

Tracklist:
01. For The People
02. Marionettes Game (Feat. Drekalo)
03. Sacrament For The Binding Of Allah
04. Until The End
05. One Nation, Under Lucifer
06. A Twisted Form Of Unity
07. Bloodbath Aftermath
08. The Beginning Of The End
09. Open Your Eyes
10. Worship Of A False God
11. Rebirth Of A New Generation
******************************
Total playing time: 37:30



Technical info
(IMG:http://metalarea.org/images/spectrogram/2021_Jun/b856a8f6982d6cd12e800c7ecc4789c0.png)
Input File: 02. Marionettes Game (Feat. Drekalo).mp3
Channels : 2
Sample Rate : 44100
Precision : 16-bit
Duration : 00:05:00.45 = 13250021 samples = 22534 CDDA sectors
File Size : 12.1M
Bit Rate : 321k
Sample Encoding: MPEG audio (layer I, II or III)
Comments :
Title=Marionettes Game (Feat. Drekalo)
Artist=After The Funeral
Album=Annihilatification
Tracknumber=02/11
Year=2021



Register


Go to the top of the page
  Insert nick Quick quote
+Quote Post
 
Start new topic
Replies (1 - 2)
post Jun 13 2021, 08:51:26
Post #2

Четыре Литра
****
Group: Металариец
Posts: 376
Releases: 0
From: Москва
On Forums: 12 years 9 months
Thanks: 73 time(s)
Russian Federation


Грустная мешанина звуков
Go to the top of the page
  Insert nick Quick quote
+Quote Post
post Jun 13 2021, 10:25:29
Post #3

Ледоруб
**************
Group: Металариец
Posts: 28,181
Releases: 0
From: Санкт-Петербург
On Forums: 11 years 9 months
Thanks: 10173 time(s)
Russian Federation


ЦИТАТА(Gazzzooo @ 13th June 2021 - 10:51:26) *
Грустная мешанина звуков

Гарантируешь?
Go to the top of the page
  Insert nick Quick quote
+Quote Post

Reply to this topicStart new topic
1 User(s) are reading this topic (1 Guests and 0 Anonymous Users)
0 Members:

 



- Lo-Fi Version Support form
Copyrights and abuse reports form
Time is now: 18th June 2021 - 06:34:37