Welcome Guest ( Log In | Register )

> Releases Upload / Добавление релизов

Добавить релиз тут / Click here to add release
Рекомендованные обменники / Recommended file shares

> General Surgery - Lay Down And Be Counted [ep] (2021), Death Metal/Goregrind (D)
post Jun 11 2021, 03:29:08
Post #1

Маньяк
**********
Group: Металариец
Posts: 1,278
Releases: 454
On Forums: 10 years 6 months
Thanks: 9788 time(s)
Italy


(IMG:https://metalarea.org/images/audiocovers/2021_Jun/acov_tid351940_thumb.jpg)

*Artist: General Surgery
*Album: Lay Down And Be Counted [ep]
*Year: 2021
*Genre: Death Metal/Goregrind
*Country: Sweden (IMG:https://metalarea.org/forum/style_images/flags/Sweden.png)
*Format: mp3@CBR320kbps
*Size: 48MB

Tracklist:
1.Effusive Opulent Decampment/Lay Down and Be Counted 05:02
2.(In the Realm of the) Thorax Embalmer 00:58
3.At Cut Throat Speed 03:58
4.Liquefactive Decay of Remnant Lung Tissue 03:43
5.Necrogore 00:53
6.Psychotic Cerebral Procedure 01:13
7.Sentenced to the Slab/Organ Failure 04:22
******************************
Total playing time: 20:09



Technical info
(IMG:https://metalarea.org/images/spectrogram/2021_Jun/24f9100ec7ad1907dd51978ec0d22ab2.png)
Input File: 02. (In the Realm of the) Thorax Embalmer.mp3
Channels : 2
Sample Rate : 44100
Precision : 16-bit
Duration : 00:00:58.57 = 2583025 samples = 4392.9 CDDA sectors
File Size : 2.67M
Bit Rate : 365k
Sample Encoding: MPEG audio (layer I, II or III)
Comments :
Title=(In the Realm of the) Thorax Embalmer
Artist=General Surgery
Album=Lay Down and Be Counted
Tracknumber=02
Year=2021
Genre=Death Metal/Goregrind



Register


Go to the top of the page
  Insert nick Quick quote
+Quote Post
 
Start new topic
Replies (1 - 2)
post Jun 11 2021, 12:52:26
Post #2

Маньяк
**********
Group: Металариец
Posts: 1,032
Releases: 1
From: APATIN, SERBIA, АПАТИН, СЕРБИЯ
On Forums: 13 years 7 months
Thanks: 2256 time(s)



Flac

Register


Go to the top of the page
  Insert nick Quick quote
+Quote Post
post Jun 11 2021, 15:01:00
Post #3

Group: Подсевший
Posts: 37
Releases: 0
From: Moscow
On Forums: 5 years 4 months
Thanks: 35 time(s)
Unknown


Как-то слабенько)
Go to the top of the page
  Insert nick Quick quote
+Quote Post

Reply to this topicStart new topic
2 User(s) are reading this topic (2 Guests and 0 Anonymous Users)
0 Members:

 



- Lo-Fi Version Support form
Copyrights and abuse reports form
Time is now: 18th June 2021 - 07:21:11