Welcome Guest ( Log In | Register )

> Releases Upload / Добавление релизов

Добавить релиз тут / Click here to add release
Рекомендованные обменники / Recommended file shares

 
Reply to this topicStart new topic
> Blood Prophecy - In Your Chaos (2021), Melodic Death Metal
post Jun 11 2021, 06:58:06
Post #1

Правь статус, ####!111
**************
Group: Металариец
Posts: 6,550
Releases: 6029
From: Lithuania
On Forums: 14 years 8 months
Thanks: 46076 time(s)
Lithuania


(IMG:https://metalarea.org/images/audiocovers/2021_Jun/acov_tid351941_thumb.jpg)

*Artist: Blood Prophecy
*Album: In Your Chaos
*Year: 2021
*Genre: Melodic Death Metal
*Country: Japan (IMG:https://metalarea.org/forum/style_images/flags/Japan.png)
*Format: mp3@CBR320kbps
*Size: 77MB

Tracklist:
1. In Your Chaos 01:23 (instrumental)
2. The World on the Fire 03:56
3. I Feel Regret 04:54
4. Selfishness 05:11
5. Enthrone of Tyrant 04:03
6. Phobia 05:16
7. Deep Darkness of Spirit 06:02
8. Gone with the Wind 02:25 (instrumental)
******************************
Total playing time: 33:10




Technical info
(IMG:https://metalarea.org/images/spectrogram/2021_Jun/bb03d4f6439fe96c2128183be730eb28.png)
Input File: Blood Prphecy - In Your Chaos - 02 The World On The Fire.mp3
Channels : 2
Sample Rate : 44100
Precision : 16-bit
Duration : 00:03:56.08 = 10411172 samples = 17706.1 CDDA sectors
File Size : 9.53M
Bit Rate : 323k
Sample Encoding: MPEG audio (layer I, II or III)
Comments :
Title=The World On The Fire
Artist=Blood Prphecy
Album=In Your Chaos
Tracknumber=2
Year=2021
Genre=9



Register


Go to the top of the page
  Insert nick Quick quote
+Quote Post

Reply to this topicStart new topic
1 User(s) are reading this topic (1 Guests and 0 Anonymous Users)
0 Members:

 



- Lo-Fi Version Support form
Copyrights and abuse reports form
Time is now: 18th June 2021 - 05:58:05