Welcome Guest ( Log In | Register )

> Releases Upload / Добавление релизов

Добавить релиз тут / Click here to add release
Рекомендованные обменники / Recommended file shares

> The Gebruder Grim - The Everlasting Fear (2021), Heavy Metal
post Jun 11 2021, 09:10:30
Post #1

Шесть Литров
******
Group: Металариец
Posts: 535
Releases: 481
On Forums: 3 months 1 day
Thanks: 11534 time(s)
United States


(IMG:http://metalarea.org/images/audiocovers/2021_Jun/acov_tid351943_thumb.jpg)

*Artist: The Gebruder Grim
*Album: The Everlasting Fear
*Year: 2021
*Genre: Heavy Metal
*Country: Germany (IMG:http://metalarea.org/forum/style_images/flags/Germany.png)
*Format: mp3@CBR320kbps
*Size: 116MB

Tracklist:
01. Changing Of The Guard
02. Forward Ever
03. The Necromancer
04. Free God
05. The Everlasting Fear
06. Summer Of Gloom
07. Ricochet
08. Black Train Coming
09. Fire
10. Black Santiago
11. Confuser
12. Tokyo Ruse
******************************
Total playing time: 46:57




Technical info
(IMG:http://metalarea.org/images/spectrogram/2021_Jun/91b3a756b2426a91c136adbbbd0c15bd.png)
Input File: 02. Forward Ever.mp3
Channels : 2
Sample Rate : 44100
Precision : 16-bit
Duration : 00:05:00.09 = 13233881 samples = 22506.6 CDDA sectors
File Size : 12.1M
Bit Rate : 322k
Sample Encoding: MPEG audio (layer I, II or III)
Comments :
Title=Forward Ever
Artist=The Gebruder Grim
Album=The Everlasting Fear
Tracknumber=02/12
Year=2021-06-11
Genre=Metal
Discnumber=1



Register


Go to the top of the page
  Insert nick Quick quote
+Quote Post
 
Start new topic
Replies (1 - 1)
post Jun 11 2021, 16:14:59
Post #2

Common dweller of hell
**************
Group: Металариец
Posts: 3,880
Releases: 12
From: Dnipro
On Forums: 13 years 2 weeks
Thanks: 1524 time(s)
Ukraine


Напоминает группы из 80-ых. Даже сказал бы что это полу хэви, полу глэм, по крайней мере мне так показалось.
Go to the top of the page
  Insert nick Quick quote
+Quote Post

Reply to this topicStart new topic
1 User(s) are reading this topic (1 Guests and 0 Anonymous Users)
0 Members:

 



- Lo-Fi Version Support form
Copyrights and abuse reports form
Time is now: 29th July 2021 - 13:56:59