Welcome Guest ( Log In | Register )

> Releases Upload / Добавление релизов

Добавить релиз тут / Click here to add release
Рекомендованные обменники / Recommended file shares

 
Reply to this topicStart new topic
> Armnatt - Eternal Flame (2021), Raw Black Metal
post Jun 11 2021, 11:40:41
Post #1

Правь статус, ####!616
**************
Group: Металариец
Posts: 6,350
Releases: 4838
From: 55°35’N 38°08’E
On Forums: 12 years 11 months
Thanks: 89425 time(s)
Unknown


(IMG:https://metalarea.org/images/audiocovers/2021_Jun/acov_tid351949_thumb.jpg)

*Artist: Armnatt
*Album: Eternal Flame
*Year: 2021
*Genre: Raw Black Metal
*Country: Portugal (IMG:https://metalarea.org/forum/style_images/flags/Portugal.png)
*Format: mp3@CBR320kbps
*Size: 71MB

Tracklist:
1.The Ancient Path 00:27
2.Darkness Embrace 04:23
3.All In Ruins 03:57
4.Black Moon 03:18
5.Majestic Shadows 00:25
6.Dark Moon Rising 04:09
7.Eternal Flame 04:14
8.Immortal Might 04:35
9.Hordeland 04:49
10.What Once Was 00:32
******************************
Total playing time: 30:49




Technical info
(IMG:https://metalarea.org/images/spectrogram/2021_Jun/e144becf9b1f83bcf67918bfeff28c3e.png)
Input File: 02 Darkness Embrace.mp3
Channels : 2
Sample Rate : 44100
Precision : 16-bit
Duration : 00:04:23.78 = 11632522 samples = 19783.2 CDDA sectors
File Size : 10.6M
Bit Rate : 323k
Sample Encoding: MPEG audio (layer I, II or III)
Comments :
Title=Darkness Embrace
Artist=Armnatt
Album=Eternal Flame
Tracknumber=2
Year=2021
Genre=Black Metal



Register


Go to the top of the page
  Insert nick Quick quote
+Quote Post

Reply to this topicStart new topic
1 User(s) are reading this topic (1 Guests and 0 Anonymous Users)
0 Members:

 



- Lo-Fi Version Support form
Copyrights and abuse reports form
Time is now: 18th June 2021 - 07:41:48