Welcome Guest ( Log In | Register )

> Releases Upload / Добавление релизов

Добавить релиз тут / Click here to add release
Рекомендованные обменники / Recommended file shares

> Gargowitch - Avidee [demo] (2019), Experimental Black Metal
post Jun 11 2021, 11:53:45
Post #1

the faceless one
Group Icon
Group: S-moderation team
Posts: 9,419
Releases: 1944
On Forums: 12 years 10 months
Thanks: 117974 time(s)
Russian Federation


(IMG:http://metalarea.org/images/audiocovers/2021_Jun/acov_tid351986_thumb.jpg)

*Artist: Gargowitch
*Album: Avidee [demo]
*Year: 2019
*Genre: Experimental Black Metal
*Country: France (IMG:http://metalarea.org/forum/style_images/flags/France.png)
*Format: mp3@CBR320kbps
*Size: 117MB

Tracklist:
1. Le bûcher d'Agrile 12:08
2. Thotrevanchethot 07:41
3. Avidee 09:36
4. Akelarre XXX 08:02
5. Goetia Animosa 05:26
6. Magique Holo 06:48
******************************
Total playing time: 49:41



Extended info
Devoted Art Propaganda - NMS 038

Ltd. 100 copies


Technical info
(IMG:http://metalarea.org/images/spectrogram/2021_Jun/7361539050e2145bb24c65452dc636eb.png)
Input File: 05. Goetia Animosa.mp3
Channels : 2
Sample Rate : 44100
Precision : 16-bit
Duration : 00:05:27.07 = 14423963 samples = 24530.5 CDDA sectors
File Size : 13.1M
Bit Rate : 320k
Sample Encoding: MPEG audio (layer I, II or III)
Comments :
Title=Goetia Animosa
Artist=Gargowitch
Album=Avidee
Tracknumber=5/6
Year=2019



Register


Go to the top of the page
  Insert nick Quick quote
+Quote Post
 
Start new topic
Replies (1 - 2)
post Jun 13 2021, 07:44:41
Post #2

**************
Group: Металариец
Posts: 2,649
Releases: 14
From: Казань
On Forums: 11 years 9 months
Thanks: 3681 time(s)
Russian Federation


…Мир вокруг стал стремительно угасать и менять краски на мертвенно синие.
Вся палитра естественных цветов постепенно стала отходить на второстепенные тона. Окрас сфокусировал фрагменты некоторых деталей, ставших неблагозвучными, совершенно не вписывающихся в архитектуру окружения.
Вокруг всё наполнилось звуками. Фигуры вдруг ожили, богомерзкий вой флейт стал заполнять фактуру. Я услышал крики животных, в которых вцепились голодные хищники, увидел Боль, наполненную неестественным светом, а ожидание наполнилось тревогой. Мелодия утратила свое очарование, она наполнилась проклятиями, кусками порченого мяса и исковерканной похотью мемуаров. Я услышал звук гонга, крики женщин и монахов побежавших в трапезную.
Мелодия все лилась, плавно, неспешно и заупокойно, словно прохладная вода из живительного источника. Молитвы и песнопения стали сытыми и довольными. Что за чертовщина…кто-то усердно манипулирует с сознанием, заставляя испытывать бесконечный голод. Пора посетить филармонию. Или на худой конец закусочную, где будут подавать телятину, сдобренную доброй порцией адреналина. Хороший вечер и столь прекрасное творение.


Go to the top of the page
  Insert nick Quick quote
+Quote Post
post Jun 13 2021, 11:31:58
Post #3

градусы контрастов
**************
Group: Металариец
Posts: 4,991
Releases: 0
On Forums: 5 years 4 months
Thanks: 3232 time(s)
Unknown


хрень №2
Go to the top of the page
  Insert nick Quick quote
+Quote Post

Reply to this topicStart new topic
2 User(s) are reading this topic (2 Guests and 0 Anonymous Users)
0 Members:

 



- Lo-Fi Version Support form
Copyrights and abuse reports form
Time is now: 18th June 2021 - 06:37:09