Welcome Guest ( Log In | Register )

> Releases Upload / Добавление релизов

Добавить релиз тут / Click here to add release
Рекомендованные обменники / Recommended file shares

> Gargowitch - Cannibal Troten [demo] (2019), Experimental Black Metal
post Jun 11 2021, 11:54:13
Post #1

the faceless one
Group Icon
Group: S-moderation team
Posts: 9,419
Releases: 1944
On Forums: 12 years 10 months
Thanks: 117974 time(s)
Russian Federation


(IMG:http://metalarea.org/images/audiocovers/2021_Jun/acov_tid351985_thumb.jpg)

*Artist: Gargowitch
*Album: Cannibal Troten [demo]
*Year: 2019
*Genre: Experimental Black Metal
*Country: France (IMG:http://metalarea.org/forum/style_images/flags/France.png)
*Format: mp3@CBR320kbps
*Size: 71MB

Tracklist:
1. Les doigts de lampée - De la merde, lacustre - Cannibal troten 19:36
2. Les 3 soeurs violent - Dans ma pute de peau - Assassin oral respublic - Kokhitr, mort-né 26:20
******************************
Total playing time: 45:56




Extended info
Devoted Art Propaganda - NMS 039

Ltd. 100 copies


Technical info
(IMG:http://metalarea.org/images/spectrogram/2021_Jun/c99f3bf3c37524a534e8aef14680d54a.png)
Input File: 01. Les Doigts De Lampée - De La Merde, Lacustre - Cannibal Troten.mp3
Channels : 2
Sample Rate : 44100
Precision : 16-bit
Duration : 00:19:38.14 = 51955886 samples = 88360.4 CDDA sectors
File Size : 47.1M
Bit Rate : 320k
Sample Encoding: MPEG audio (layer I, II or III)
Comments :
Title=Les Doigts De Lampée - De La Merde, Lacustre - Cannibal Troten
Artist=Gargowitch
Album=Comee - Cannibal Troten
Tracknumber=1/2
Year=2019



Register


Go to the top of the page
  Insert nick Quick quote
+Quote Post
 
Start new topic
Replies (1 - 4)
post Jun 11 2021, 12:17:21
Post #2

0%Tolerance
**********
Group: Металариец
Posts: 1,038
Releases: 0
On Forums: 8 years 9 months
Thanks: 187 time(s)
Unknown


Не чистый экспериментал блэк, но слушается с долей интереса.
Go to the top of the page
  Insert nick Quick quote
+Quote Post
post Jun 12 2021, 16:04:49
Post #3

the faceless one
Group Icon
Group: S-moderation team
Posts: 9,419
Releases: 1944
On Forums: 12 years 10 months
Thanks: 117974 time(s)
Russian Federation


Cведённые жадным вожделением зубы завязли в уступчивых патологических отходах. Пульсирующие звуки, рождённые в пресыщенное мгновение освежевания плоти, сплёвываются через прожорливое нутро каннибала. Древнее капище, подобно загаженному отверстию в теле, заполненном солёной липкой кровью и требухой, призывает воздать хвалы обновлённой личине избранной жертвы. Пролонгация Арс Ноториа, в которой голос крови вибрирует шумовыми хроматизмами, выводящими калеченые зарисовки одержимого Культа. Потворствуй своей зависимости от извращённых желаний: ЖРИ!


Go to the top of the page
  Insert nick Quick quote
+Quote Post
post Jun 13 2021, 11:30:54
Post #4

градусы контрастов
**************
Group: Металариец
Posts: 4,991
Releases: 0
On Forums: 5 years 4 months
Thanks: 3232 time(s)
Unknown


хрень.
Go to the top of the page
  Insert nick Quick quote
+Quote Post
post Jun 14 2021, 08:31:20
Post #5

the faceless one
Group Icon
Group: S-moderation team
Posts: 9,419
Releases: 1944
On Forums: 12 years 10 months
Thanks: 117974 time(s)
Russian Federation


Хрень не хрень, но историку Олегу Соколову зашло бы в качестве музыкального сопровождения расчленения белого тела Анастасии Ещенко. Пальцы кисти художника обретут покой на горле жертвы...
Go to the top of the page
  Insert nick Quick quote
+Quote Post

Reply to this topicStart new topic
2 User(s) are reading this topic (2 Guests and 0 Anonymous Users)
0 Members:

 



- Lo-Fi Version Support form
Copyrights and abuse reports form
Time is now: 18th June 2021 - 06:48:17