Welcome Guest ( Log In | Register )

 
Reply to this topicStart new topic
> Abyss - Darkness Around You [demo] (2001), Thrash Metal (D)
post Jun 11 2021, 12:04:47
Post #1

Подвал
**************
Group: Металариец
Posts: 16,113
Releases: 9224
From: Far East (Khabarovsk)
On Forums: 12 years 4 months
Thanks: 104073 time(s)
Russian Federation


(IMG:http://metalarea.org/images/audiocovers/2021_Jun/acov_tid351953_thumb.JPG)

*Artist: Abyss
*Album: Darkness Around You [demo]
*Year: 2001
*Genre: Thrash Metal
*Country: Chile (IMG:http://metalarea.org/forum/style_images/flags/Chile.png)
*Format: mp3@CBR192kbps
*Size: 21MB

Tracklist:
1. Mark Of Death 05:32
2. Army Of Hate 05:01
3. Sentence 04:32
******************************
Total playing time: 15:05



Technical info
(IMG:http://metalarea.org/images/spectrogram/2021_Jun/6a55e86ce43a4774615b6e802a002721.png)
Input File: 01-Mark of Death.mp3
Channels : 2
Sample Rate : 44100
Precision : 16-bit
Duration : 00:05:16.59 = 13961707 samples = 23744.4 CDDA sectors
File Size : 7.60M
Bit Rate : 192k
Sample Encoding: MPEG audio (layer I, II or III)
Comments :
Title=Mark of Death
Artist=Abyss (Chile)
Album=Darkness Around You (Demo)
Tracknumber=01
Year=2001
Genre=Thrash Metal



Register


Go to the top of the page
  Insert nick Quick quote
+Quote Post

Reply to this topicStart new topic
2 User(s) are reading this topic (2 Guests and 0 Anonymous Users)
0 Members:

 



- Lo-Fi Version Support form
Copyrights and abuse reports form
Time is now: 18th June 2021 - 07:34:32