Welcome Guest ( Log In | Register )

> Releases Upload / Добавление релизов

Добавить релиз тут / Click here to add release
Рекомендованные обменники / Recommended file shares

 
Reply to this topicStart new topic
> Awaketh - Awaketh [compilation] (2021), Raw Black Metal
post Jun 11 2021, 12:06:40
Post #1

Правь статус, ####!616
**************
Group: Металариец
Posts: 6,350
Releases: 4838
From: 55°35’N 38°08’E
On Forums: 12 years 11 months
Thanks: 89425 time(s)
Unknown


(IMG:https://metalarea.org/images/audiocovers/2021_Jun/acov_tid351954_thumb.jpg)

*Artist: Awaketh
*Album: Awaketh [compilation]
*Year: 2021
*Genre: Raw Black Metal
*Country: Spain (IMG:https://metalarea.org/forum/style_images/flags/Spain.png)
*Format: mp3@CBR320kbps
*Size: 89MB

Tracklist:
1.From the Caves 01:07
2.Horned Throne 03:58
3.Rapture 04:30
4.Haunting Presence 02:16
5.Nocturnal Lust 06:29
6.Endless Fear 01:36
7.Blood Magick 03:42
8.Enlighten 06:03
9.Rising Spirit 02:12
10.Burning Golgotha 06:01
******************************
Total playing time: 37:54



Technical info
(IMG:https://metalarea.org/images/spectrogram/2021_Jun/ff062500a6d47dcda6a6d84edeaabe13.png)
Input File: 02 Horned Throne.mp3
Channels : 2
Sample Rate : 44100
Precision : 16-bit
Duration : 00:03:58.75 = 10528831 samples = 17906.2 CDDA sectors
File Size : 9.74M
Bit Rate : 326k
Sample Encoding: MPEG audio (layer I, II or III)
Comments :
Title=Horned Throne
Artist=AWAKETH
Album=s​/​t
Tracknumber=2
Year=2021
Genre=Black Metal



Register


Go to the top of the page
  Insert nick Quick quote
+Quote Post

Reply to this topicStart new topic
2 User(s) are reading this topic (2 Guests and 0 Anonymous Users)
0 Members:

 



- Lo-Fi Version Support form
Copyrights and abuse reports form
Time is now: 18th June 2021 - 07:17:28