Welcome Guest ( Log In | Register )

 
Reply to this topicStart new topic
> Black Spirit - El Sueño De La Razón Produce Monstruos (2021), Black Metal (D5)
post Jun 12 2021, 07:29:01
Post #1

Правь статус, ####!111
**************
Group: Металариец
Posts: 2,333
Releases: 1883
From: Praha
On Forums: 7 years 5 months
Thanks: 50136 time(s)
Czech Republic


(IMG:http://metalarea.org/images/audiocovers/2021_Jun/acov_tid351975_thumb.jpg)

*Artist: Black Spirit
*Album: El Sueño De La Razón Produce Monstruos
*Year: 2021
*Genre: Black Metal
*Country: Spain (IMG:http://metalarea.org/forum/style_images/flags/Spain.png)
*Format: mp3@CBR320kbps
*Size: 116MB

Tracklist:
01. El Sueño de la Razón Produce Monstruos 02:31
02. Ignorance and The Grotesque 05:13
03. Dream or a Nightmare 06:15
04. At the Edge of Conciousness 04:56
05. Disparate del miedo 01:50
06. Black Paintings 03:28
07. The Depths of Time 04:13
08. Disparate Funebre 02:29
09. The Fanatics of Oppresion 05:07
10. The Mystical Silence 04:43
11. There will Always be a yet Greater Horror 03:48
12. In the Vortex to Infinite Blackness 05:55
******************************
Total playing time: 50:28

Technical info
(IMG:http://metalarea.org/images/spectrogram/2021_Jun/5ba9bb6408282c8d0c1ff34bbe2004b5.png)
Input File: 02. Ignorance And The Grotesque.mp3
Channels : 2
Sample Rate : 44100
Precision : 16-bit
Duration : 00:05:29.09 = 14512649 samples = 24681.4 CDDA sectors
File Size : 13.2M
Bit Rate : 320k
Sample Encoding: MPEG audio (layer I, II or III)
Comments :
Title=Ignorance And The Grotesque
Artist=Black Spirit
Album=El Sueño de la Razón Produce Monstruos
Tracknumber=02/12
Year=2021
Genre=Black Metal
Discnumber=1/1



Register


Go to the top of the page
  Insert nick Quick quote
+Quote Post
post Jun 12 2021, 12:21:43
Post #2

the faceless one
Group Icon
Group: S-moderation team
Posts: 9,465
Releases: 1958
On Forums: 13 years 1 month
Thanks: 119153 time(s)
Russian Federation


Отражение -
Register


Go to the top of the page
  Insert nick Quick quote
+Quote Post
post Jun 12 2021, 13:12:44
Post #3

While Waiting the Worms
**********
Group: Металариец
Posts: 1,373
Releases: 0
On Forums: 7 years 8 months
Thanks: 2092 time(s)
Unknown


Добротный стафф.


Go to the top of the page
  Insert nick Quick quote
+Quote Post
post Jun 14 2021, 15:09:19
Post #4

Пять Литров
*****
Group: Металариец
Posts: 435
Releases: 73
From: italy
On Forums: 13 years 2 months
Thanks: 1645 time(s)
Italy


good one


Thanks:
(1) Occultas,
Go to the top of the page
  Insert nick Quick quote
+Quote Post
post Jun 20 2021, 11:07:49
Post #5
BAN
Banned till
Oct 22 2021, 16:25:29



хорошо, но ничего своего.
Go to the top of the page
  Insert nick Quick quote
+Quote Post
post Jul 16 2021, 09:40:04
Post #6

Group: Подсевший
Posts: 34
Releases: 0
From: Жуковский
On Forums: 12 years 7 months
Thanks: 37 time(s)
Russian Federation


FLAC

Register

Register

Register


Thanks:
(1) artscald,
Go to the top of the page
  Insert nick Quick quote
+Quote Post

Reply to this topicStart new topic
1 User(s) are reading this topic (1 Guests and 0 Anonymous Users)
0 Members:

 



- Lo-Fi Version Support form
Copyrights and abuse reports form
Time is now: 18th September 2021 - 15:05:47