Welcome Guest ( Log In | Register )

> Spasticus - Horror Chaos Death [ep] (2021), Death/Thrash Metal
post Jun 12 2021, 18:11:30
Post #1

Правь статус, 616
**************
Group: Металариец
Posts: 8,201
Releases: 6508
From: 55°35’N 38°08’E
On Forums: 14 years 4 months
Thanks: 118349 time(s)
Russian Federation


(IMG:https://metalarea.org/images/audiocovers/2021_Jun/acov_tid351999_thumb.jpg)

*Artist: Spasticus
*Album: Horror Chaos Death [ep]
*Year: 2021
*Genre: Death/Thrash Metal
*Country: Italy (IMG:https://metalarea.org/forum/style_images/flags/Italy.png)
*Format: mp3@CBR320kbps
*Size: 52MB

Tracklist:
1.Birth To The Plague 03:54
2.Chemo-Whore 02:47
3.Obliteration 03:22
4.Horror Chaos Death 05:32
5.Conquest Mania 03:18
******************************
Total playing time: 18:53




Technical info
(IMG:https://metalarea.org/images/spectrogram/2021_Jun/a96ffca082eac769192a388201dfe761.png)
Input File: 01 Birth To The Plague.mp3
Channels : 2
Sample Rate : 44100
Precision : 16-bit
Duration : 00:03:54.83 = 10356003 samples = 17612.2 CDDA sectors
File Size : 9.64M
Bit Rate : 328k
Sample Encoding: MPEG audio (layer I, II or III)
Comments :
Title=Birth To The Plague
Artist=Spasticus
Album=Horror Chaos Death
Tracknumber=1
Year=2021
Genre=Death/Thrash Metal



Register


Go to the top of the page
  Insert nick Quick quote
+Quote Post
 
Start new topic
Replies (1 - 1)
post Sep 29 2022, 21:51:43
Post #2

Шесть Литров
******
Group: Металариец
Posts: 510
Releases: 0
From: германия
On Forums: 13 years 11 months
Thanks: 184 time(s)
Russian Federation


А круто же! Аутопси напоминают!
Go to the top of the page
  Insert nick Quick quote
+Quote Post

Reply to this topicStart new topic
1 User(s) are reading this topic (1 Guests and 0 Anonymous Users)
0 Members:

 



- Lo-Fi Version Support form
Copyrights and abuse reports form
Time is now: 30th November 2022 - 08:55:20