Welcome Guest ( Log In | Register )

> И неформату есть предел.

Рэп/хип-хоп/шансон/поп удаляются. Для них есть свои порталы.

> Randy Holden - Population II (1970), Hard Rock/Heavy Psych
post Jun 12 2021, 19:23:13
Post #1

Правь статус, ####!111
**************
Group: Металариец
Posts: 49,007
Releases: 848
On Forums: 12 years 1 month
Thanks: 44046 time(s)
Russian Federation


(IMG:http://metalarea.org/images/audiocovers/2021_Jun/acov_tid352002_thumb.jpg)

*Artist: Randy Holden
*Album: Population II
*Year: 1970
*Genre: Hard Rock/Heavy Psych
*Country: United States (IMG:http://metalarea.org/forum/style_images/flags/United%20States.png)
*Format: mp3@CBR320kbps
*Size: 69MB

Tracklist:
1. Guitar Song 06:10
2. Fruit & Iceburgs 05:02
3. Between Time 01:49
4. Fruit & Iceburgs (Conclusion) 01:51
5. Blue My Mind 06:00
6. Keeper Of My Flame 10:02
******************************
Total playing time: 30:54

(IMG:http://metalarea.org/images/youtube.png)

Technical info
(IMG:http://metalarea.org/images/spectrogram/2021_Jun/f9a9534eda62f92d9ab4df8c947c7b91.png)
Input File: 01 - Guitar Song.mp3
Channels : 2
Sample Rate : 44100
Precision : 16-bit
Duration : 00:06:11.77 = 16395145 samples = 27882.9 CDDA sectors
File Size : 15.0M
Bit Rate : 322k
Sample Encoding: MPEG audio (layer I, II or III)
Comments :
Title=Guitar Song
Artist=Randy Holden
Album=Population II
Tracknumber=1
Year=1971
Genre=Rock



Register


Go to the top of the page
  Insert nick Quick quote
+Quote Post
 
Start new topic
Replies (1 - 2)
post Jun 12 2021, 19:24:57
Post #2

Total Death
**********
Group: Металариец
Posts: 1,350
Releases: 75
On Forums: 12 years 1 month
Thanks: 2028 time(s)
Unknown


Классный, да.


Go to the top of the page
  Insert nick Quick quote
+Quote Post
post Jun 12 2021, 19:27:12
Post #3

Правь статус, ####!111
**************
Group: Металариец
Posts: 49,007
Releases: 848
On Forums: 12 years 1 month
Thanks: 44046 time(s)
Russian Federation


ЦИТАТА(Necrodictator @ Jun 12 2021, 22:24:57) *
Классный, да.


В то время достаточно много музыкантов играли подобную музыку, но очень немногим удавалось сделать это настолько круто, как Рэнди. (IMG:style_emoticons/default/pray.gif) Нестареющая классика!


Go to the top of the page
  Insert nick Quick quote
+Quote Post

Reply to this topicStart new topic
1 User(s) are reading this topic (1 Guests and 0 Anonymous Users)
0 Members:

 



- Lo-Fi Version Support form
Copyrights and abuse reports form
Time is now: 28th July 2021 - 15:32:49