Welcome Guest ( Log In | Register )

> Satanism - Whore Of Death [ep] (2021), Black/Death Metal
post Jun 13 2021, 00:18:13
Post #1

Правь статус, ####!616
**************
Group: Металариец
Posts: 7,184
Releases: 5615
From: 55°35’N 38°08’E
On Forums: 13 years 3 months
Thanks: 102357 time(s)
Unknown


(IMG:https://metalarea.org/images/audiocovers/2021_Jun/acov_tid352008_thumb.jpg)

*Artist: Satanism
*Album: Whore Of Death [ep]
*Year: 2021
*Genre: Black/Death Metal
*Country: United States (IMG:https://metalarea.org/forum/style_images/flags/United%20States.png)
*Format: mp3@CBR320kbps
*Size: 28MB

Tracklist:
1.The Black God 03:14
2.Satanic Hymns 03:45
3.Whore of Death 03:59
******************************
Total playing time: 10:58



Technical info
(IMG:https://metalarea.org/images/spectrogram/2021_Jun/acb490dd8189e72c2622657db419d500.png)
Input File: 01 The Black God.mp3
Channels : 2
Sample Rate : 44100
Precision : 16-bit
Duration : 00:03:14.21 = 8564573 samples = 14565.6 CDDA sectors
File Size : 7.94M
Bit Rate : 327k
Sample Encoding: MPEG audio (layer I, II or III)
Comments :
Title=The Black God
Artist=Satanism
Album=Whore of Death
Tracknumber=1
Year=2021
Genre=Black/Death Metal



Register


Go to the top of the page
  Insert nick Quick quote
+Quote Post
 
Start new topic
Replies (1 - 5)
post Jun 13 2021, 17:50:11
Post #2

Это просто место… где все подошло к концу.
**************
Group: Металариец
Posts: 6,422
Releases: 0
From: Страны Мамонтов
On Forums: 14 years 7 months
Thanks: 2521 time(s)
Antarctica


Оригинальное название (IMG:style_emoticons/default/facessspalm.png)


Thanks:
Go to the top of the page
  Insert nick Quick quote
+Quote Post
post Jun 14 2021, 21:15:11
Post #3

Absorbence
***********
Group: Металариец
Posts: 1,794
Releases: 216
From: Vastland Abyss of Cthulhu
On Forums: 14 years 11 months
Thanks: 3962 time(s)
Canada


(IMG:style_emoticons/default/true_black.gif)
Go to the top of the page
  Insert nick Quick quote
+Quote Post
post Jun 14 2021, 21:56:33
Post #4

Ретроград
**************
Group: Металариец
Posts: 5,258
Releases: 210
On Forums: 14 years 3 months
Thanks: 8609 time(s)
Vatican City


ЦИТАТА(avather @ Jun 13 2021, 19:50:11) *
Оригинальное название (IMG:style_emoticons/default/facessspalm.png)

Знаешь еще группы с таким названием?)


Thanks:
(1) Occultas,
Go to the top of the page
  Insert nick Quick quote
+Quote Post
post Jun 14 2021, 22:13:28
Post #5
BAN
Banned till
Oct 22 2021, 16:25:29



ЦИТАТА(Kazoth @ 15th June 2021 - 01:56:33) *
Знаешь еще группы с таким названием?)

Satanist Terrorist (IMG:style_emoticons/default/1488.gif)
Go to the top of the page
  Insert nick Quick quote
+Quote Post
post Jun 14 2021, 22:34:55
Post #6

Это просто место… где все подошло к концу.
**************
Group: Металариец
Posts: 6,422
Releases: 0
From: Страны Мамонтов
On Forums: 14 years 7 months
Thanks: 2521 time(s)
Antarctica


ЦИТАТА(Kazoth @ Jun 14 2021, 23:56:33) *
Знаешь еще группы с таким названием?)

Нет, не знаю.

Go to the top of the page
  Insert nick Quick quote
+Quote Post

Reply to this topicStart new topic
2 User(s) are reading this topic (2 Guests and 0 Anonymous Users)
0 Members:

 



- Lo-Fi Version Support form
Copyrights and abuse reports form
Time is now: 16th October 2021 - 04:33:40