Welcome Guest ( Log In | Register )

> Akatarthos - Baptised By Darkness [ep] (2021), Black Metal
post Jun 14 2021, 18:56:27
Post #1

the faceless one
Group Icon
Group: S-moderation team
Posts: 9,466
Releases: 1958
On Forums: 13 years 1 month
Thanks: 119206 time(s)
Russian Federation


(IMG:http://metalarea.org/images/audiocovers/2021_Jun/acov_tid352064_thumb.jpg)

*Artist: Akatarthos
*Album: Baptised By Darkness [ep]
*Year: 2021
*Genre: Black Metal
*Country: Russian Federation (IMG:http://metalarea.org/forum/style_images/flags/Russian%20Federation.png)
*Format: mp3@CBR320kbps
*Size: 65MB

Tracklist:
1. Black Mass (Intro) 01:16
2. Death Embrace Of Lamashtu 06:37
3. Olahm - Ha - Qliphoth (Intro) 01:45
4. Enslavement Of Christian Souls 04:28
5. Golahab The Great Fire (Intro) 02:13
6. Eternal Hatred To Son Of Nazareth! 10:05
7. Glory Our Father, Satan! (Outro) 01:02
******************************
Total playing time: 27:26



Extended info
Under the Sign of Garazel Productions


Technical info
(IMG:http://metalarea.org/images/spectrogram/2021_Jun/ebf19635596d098f92416a6cff6a907b.png)
Input File: 02 - Death Embrace Of Lamashtu.wav
Channels : 2
Sample Rate : 44100
Precision : 16-bit
Duration : 00:06:36.77 = 17497608 samples = 29757.8 CDDA sectors
File Size : 70.0M
Bit Rate : 1.41M
Sample Encoding: 16-bit Signed Integer PCM



Register


Go to the top of the page
  Insert nick Quick quote
+Quote Post
 
Start new topic
Replies (1 - 8)
post Jun 14 2021, 20:38:12
Post #2

**************
Group: Металариец
Posts: 2,739
Releases: 14
From: Казань
On Forums: 12 years 1 week
Thanks: 3824 time(s)
Russian Federation


Black Metal. Медитативная аура, оторванная от реальности. Black Metal , безгранично целостный и разрозненный, не нуждающийся в оценке и благосклонности. Дорога Луны и Вечного пепла.


Go to the top of the page
  Insert nick Quick quote
+Quote Post
post Jun 15 2021, 11:24:58
Post #3

While Waiting the Worms
**********
Group: Металариец
Posts: 1,380
Releases: 0
On Forums: 7 years 9 months
Thanks: 2095 time(s)
Unknown


Неожиданно повеяло ранними NAZXUL.
По-настоящему глубокий и искренний стафф. Персональная Via Dolorosa - путь к переходу и трансформации.
Вещь в себе и во всём.
Black Metal.


Go to the top of the page
  Insert nick Quick quote
+Quote Post
post Jun 15 2021, 13:15:44
Post #4

Четыре Литра
****
Group: Металариец
Posts: 368
Releases: 20
From: Saint-Petersburg, Купчино
On Forums: 15 years 10 months
Thanks: 542 time(s)
Russian Federation


Когда-то тут говорили что Drakonhail - звуковая могила. Этот чел заслуживает таких же эпитетов.


Thanks:
Go to the top of the page
  Insert nick Quick quote
+Quote Post
post Jun 17 2021, 17:53:43
Post #5

Правь статус, ####!111
**************
Group: Металариец
Posts: 49,218
Releases: 869
On Forums: 12 years 3 months
Thanks: 44693 time(s)
Russian Federation


Интересно мнение Куба.
Go to the top of the page
  Insert nick Quick quote
+Quote Post
post Jun 17 2021, 18:30:41
Post #6
BAN
Banned till
Oct 22 2021, 16:25:29



ЦИТАТА(vosmidesijatye @ 17th June 2021 - 21:53:43) *
Интересно мнение Куба.

а чо чо, нормально чо.
по чёрному медитативненько.
Go to the top of the page
  Insert nick Quick quote
+Quote Post
post Jun 19 2021, 16:06:20
Post #7

Group: Подсевший
Posts: 40
Releases: 0
From: Moscow
On Forums: 5 years 7 months
Thanks: 41 time(s)
Unknown


Музыка Akathartos - Бездна!Бездна необъятна и кружится вокруг погруженного во Тьму несчастного человека, осмелившегося сойти в нее для вечной погибели!Вокал бесподобен,как будто Демоны Ада поют или вокалист одержим ими,хотя Акатарфос и есть Одержимость Демонами!Ничего подобного я еще от русских групп не слышала,надеюсь,что продолжение будет!


Go to the top of the page
  Insert nick Quick quote
+Quote Post
post Jun 19 2021, 17:38:45
Post #8

Group: Подсевший
Posts: 40
Releases: 0
From: Moscow
On Forums: 5 years 7 months
Thanks: 41 time(s)
Unknown


ЦИТАТА(Occultas @ Jun 19 2021, 16:55:33) *
Akatharta (which means “unclean spirit”)

Akathartos is a word from the Greek language; it means "unclean," as in a person who has been possessed by a demon.


Thanks:
(1) Occultas,
Go to the top of the page
  Insert nick Quick quote
+Quote Post
post Jun 26 2021, 16:54:01
Post #9
BAN
Banned till
Oct 22 2021, 16:25:29



I Hear Voices©


Thanks:
(1) Occultas,
Go to the top of the page
  Insert nick Quick quote
+Quote Post

Reply to this topicStart new topic
2 User(s) are reading this topic (2 Guests and 0 Anonymous Users)
0 Members:

 



- Lo-Fi Version Support form
Copyrights and abuse reports form
Time is now: 25th September 2021 - 23:12:08