Welcome Guest ( Log In | Register )

> И неформату есть предел.

Рэп/хип-хоп/шансон/поп удаляются. Для них есть свои порталы.

> Old Sorcery & Haxan Dreams - Dreams Of The Old Kingdom [split] (2018), Dungeon Synth | Dungeon Synth
post Jun 17 2021, 00:13:36
Post #1

Правь статус, 616
**************
Group: Металариец
Posts: 7,221
Releases: 5651
From: 55°35’N 38°08’E
On Forums: 13 years 4 months
Thanks: 104117 time(s)
Unknown


(IMG:https://metalarea.org/images/audiocovers/2021_Jun/acov_tid352134_thumb.jpg)

*Artist: Old Sorcery & Haxan Dreams
*Album: Dreams Of The Old Kingdom [split]
*Year: 2018
*Genre: Dungeon Synth | Dungeon Synth
*Country: Finland (IMG:https://metalarea.org/forum/style_images/flags/Finland.png) | Finland (IMG:https://metalarea.org/forum/style_images/flags/Finland.png)
*Format: mp3@CBR320kbps
*Size: 101MB

Tracklist:
Old Sorcery:
1.To the Far Valleys and Mountains Strong 06:18
2.Conjuration from the Unsilent Woods 15:04
Haxan Dreams:
3.Tundra of the Fallen Kings 08:23
4.Once Kingdom 10:53
5.Spell of Darkness 03:35
******************************
Total playing time: 44:13






Technical info
(IMG:https://metalarea.org/images/spectrogram/2021_Jun/0c38c5398dfdb87615185cd468db80a9.png)
Input File: 02 Old Sorcery - Conjuration From the Unsilent Woods.mp3
Channels : 2
Sample Rate : 44100
Precision : 16-bit
Duration : 00:15:04.31 = 39879983 samples = 67823.1 CDDA sectors
File Size : 36.2M
Bit Rate : 321k
Sample Encoding: MPEG audio (layer I, II or III)
Comments :
Title=Conjuration From the Unsilent Woods
Artist=Old Sorcery
Album=Dreams Of The Old Kingdom
Tracknumber=2
Year=2018
Genre=Dungeon Synth



Register


Go to the top of the page
  Insert nick Quick quote
+Quote Post
 
Start new topic
Replies (1 - 1)
post Jun 19 2021, 18:25:48
Post #2

Четыре Литра
****
Group: Металариец
Posts: 360
Releases: 0
On Forums: 5 months 3 weeks
Thanks: 249 time(s)
Unknown


Если честно, то песни на этом сплите представляют из себя настолько целостную картину, что и не скажешь, что над этим музыкальным полотном постарались два музыканта-художника. Old Sorceryпредставил материал который звучит чуть более эпично, а вот Haxan Dreams отличает некая тревожность с лёгким налетом трагичности. Но это если сильно вслушиваться и намеренно искать отличия. Рекомендую просто воспринять этот сплит-альбом как единое целое Dungeon Synth произведение.


Thanks:
Go to the top of the page
  Insert nick Quick quote
+Quote Post

Reply to this topicStart new topic
1 User(s) are reading this topic (1 Guests and 0 Anonymous Users)
0 Members:

 



- Lo-Fi Version Support form
Copyrights and abuse reports form
Time is now: 4th December 2021 - 12:30:55