Welcome Guest ( Log In | Register )

> И неформату есть предел.

Рэп/хип-хоп/шансон/поп удаляются. Для них есть свои порталы.

 
Reply to this topicStart new topic
> Mephistos - Sünder (2021), Industrial/Gothic Metal
post Jun 17 2021, 00:16:14
Post #1

Шесть Литров
******
Group: Металариец
Posts: 569
Releases: 497
On Forums: 5 months 3 weeks
Thanks: 12495 time(s)
United States


(IMG:http://metalarea.org/images/audiocovers/2021_Jun/acov_tid352135_thumb.jpg)

*Artist: Mephistos
*Album: Sünder
*Year: 2021
*Genre: Industrial/Gothic Metal
*Country: Austria (IMG:http://metalarea.org/forum/style_images/flags/Austria.png)
*Format: mp3@CBR320kbps
*Size: 136MB

Tracklist:
01. Sünder
02. Amen
03. Daumenlutscher
04. Hass
05. Fleisch Und Blut
06. Vatertag
07. Das Letzte Kind
08. Niemals
09. Ich Muss Hier Raus
10. HPA
11. Roter Schnee
12. Sinnhaft
13. Trauma
******************************
Total playing time: 54:48



Technical info
(IMG:http://metalarea.org/images/spectrogram/2021_Jun/6edb670ee7f22e7e00c562bfb38c2aa7.png)
Input File: 02. Amen.mp3
Channels : 2
Sample Rate : 44100
Precision : 16-bit
Duration : 00:05:23.08 = 14247696 samples = 24230.8 CDDA sectors
File Size : 13.0M
Bit Rate : 321k
Sample Encoding: MPEG audio (layer I, II or III)
Comments :
Title=Amen
Artist=Mephistos
Album=Sunder
Tracknumber=02/13
Year=2021
Genre=Metal
Discnumber=1



Register


Go to the top of the page
  Insert nick Quick quote
+Quote Post

Reply to this topicStart new topic
1 User(s) are reading this topic (1 Guests and 0 Anonymous Users)
0 Members:

 



- Lo-Fi Version Support form
Copyrights and abuse reports form
Time is now: 23rd October 2021 - 21:15:45