Welcome Guest ( Log In | Register )

> И неформату есть предел.

Рэп/хип-хоп/шансон/поп удаляются. Для них есть свои порталы.

> Old Sorcery - Strange And Eternal (2019), Dungeon Synth
post Jun 17 2021, 00:20:40
Post #1

Правь статус, 616
**************
Group: Металариец
Posts: 7,221
Releases: 5651
From: 55°35’N 38°08’E
On Forums: 13 years 4 months
Thanks: 104044 time(s)
Unknown


(IMG:https://metalarea.org/images/audiocovers/2021_Jun/acov_tid352136_thumb.jpg)

*Artist: Old Sorcery
*Album: Strange And Eternal
*Year: 2019
*Genre: Dungeon Synth
*Country: Finland (IMG:https://metalarea.org/forum/style_images/flags/Finland.png)
*Format: mp3@CBR320kbps
*Size: 103MB

Tracklist:
1.The Crystal Funeral 11:14
2.Fimbrethil 04:37
3.A Moss Covered Grimoire 07:30
4.Tears of a Dying Star 05:42
5.Tulessa Uinuva Kuningas 15:54
******************************
Total playing time: 44:57




Technical info
(IMG:https://metalarea.org/images/spectrogram/2021_Jun/a07d4f6e734c7398fd23a9865bb9d43e.png)
Input File: 01 The Crystal Funeral.mp3
Channels : 2
Sample Rate : 44100
Precision : 16-bit
Duration : 00:11:14.10 = 29727986 samples = 50557.8 CDDA sectors
File Size : 27.1M
Bit Rate : 322k
Sample Encoding: MPEG audio (layer I, II or III)
Comments :
Title=The Crystal Funeral
Artist=Old Sorcery
Album=Strange and Eternal
Tracknumber=1
Year=2019
Genre=Dungeon Synth



Register


Go to the top of the page
  Insert nick Quick quote
+Quote Post
 
Start new topic
Replies (1 - 3)
post Jun 17 2021, 18:24:08
Post #2

Четыре Литра
****
Group: Металариец
Posts: 316
Releases: 0
On Forums: 5 months 2 weeks
Thanks: 238 time(s)
Unknown


Отличный альбом от финского проекта который творить свою синтезаторную музыку! Dungeon Synth-заветы от дедушки Мортиса здесь возведены во главу угла. Но и свое собственное виденье на то, каким должна быть музыка подземелья у Vechi Vrăjitor присутствуют. На своем втором альбоме музыка приобрела еще более сказочную атмосферу, нежели мрачную как на первом альбоме. Если вы интересуетесь Данж Синтом то Old Sorcery рекомендован к ознакомлению.


Thanks:
Go to the top of the page
  Insert nick Quick quote
+Quote Post
post Jun 17 2021, 18:29:12
Post #3

Правь статус, ####!111
**************
Group: Металариец
Posts: 49,551
Releases: 892
On Forums: 12 years 5 months
Thanks: 45565 time(s)
Russian Federation


ЦИТАТА(Hexer @ Jun 17 2021, 21:24:08) *
Если вы интересуетесь Данж Синтом то Old Sorcery рекомендован к ознакомлению.


Наряду с Tangarothrim, сабж - топовйший на современной данжн синт сцене, имхо. (IMG:style_emoticons/default/bye.gif)


Thanks:
Go to the top of the page
  Insert nick Quick quote
+Quote Post
post Jun 17 2021, 18:59:03
Post #4

Четыре Литра
****
Group: Металариец
Posts: 316
Releases: 0
On Forums: 5 months 2 weeks
Thanks: 238 time(s)
Unknown


ЦИТАТА(vosmidesijatye @ Jun 17 2021, 18:29:12) *
Наряду с Tangarothrim, сабж - топовйший на современной данжн синт сцене, имхо. (IMG:style_emoticons/default/bye.gif)


Tangarothrim один из самых-самых. Можно сказать TOP-5 (IMG:style_emoticons/default/pray.gif)


Go to the top of the page
  Insert nick Quick quote
+Quote Post

Reply to this topicStart new topic
1 User(s) are reading this topic (1 Guests and 0 Anonymous Users)
0 Members:

 



- Lo-Fi Version Support form
Copyrights and abuse reports form
Time is now: 29th November 2021 - 06:25:13