Welcome Guest ( Log In | Register )

> И неформату есть предел.

Рэп/хип-хоп/шансон/поп удаляются. Для них есть свои порталы.

> Druadan Forest & Old Sorcery - Druadan Forest/Old Sorcery [split] (2021), Dungeon Synth | Dungeon Synth (D)
post Jun 17 2021, 00:58:43
Post #1

Правь статус, ####!616
**************
Group: Металариец
Posts: 7,203
Releases: 5637
From: 55°35’N 38°08’E
On Forums: 13 years 3 months
Thanks: 102879 time(s)
Unknown


(IMG:https://metalarea.org/images/audiocovers/2021_Jun/acov_tid352137_thumb.jpg)

*Artist: Druadan Forest & Old Sorcery
*Album: Druadan Forest/Old Sorcery [split]
*Year: 2021
*Genre: Dungeon Synth | Dungeon Synth
*Country: Finland (IMG:https://metalarea.org/forum/style_images/flags/Finland.png) | Finland (IMG:https://metalarea.org/forum/style_images/flags/Finland.png)
*Format: mp3@CBR320kbps
*Size: 101MB

Tracklist:
Druadan Forest:
1.Forever Wandering Towards the Shadowgate 11:07
2.Pale Sorcery of the Endless Moon 12:51
Old Sorcery:
3.Statuesque Souls Locked in a Glowing Emerald 10:24
4.Of Dragon's Blood 09:41
******************************
Total playing time: 44:03





Technical info
(IMG:https://metalarea.org/images/spectrogram/2021_Jun/5b1a315cca5aa0f909b96b76678307a2.png)
Input File: 02 DRUADAN FOREST - Pale Sorcery of the Endless Moon.mp3
Channels : 2
Sample Rate : 44100
Precision : 16-bit
Duration : 00:12:51.62 = 34028618 samples = 57871.8 CDDA sectors
File Size : 31.0M
Bit Rate : 321k
Sample Encoding: MPEG audio (layer I, II or III)
Comments :
Title=Pale Sorcery of the Endless Moon
Artist=DRUADAN FOREST
Album=Split
Tracknumber=2
Year=2021
Genre=Dungeon Synth



Register


Go to the top of the page
  Insert nick Quick quote
+Quote Post
 
Start new topic
Replies (1 - 3)
post Jun 19 2021, 18:40:01
Post #2

Три Литра
***
Group: Завсегдатай
Posts: 218
Releases: 0
On Forums: 4 months 1 week
Thanks: 168 time(s)
Unknown


А вот здесь у Old Sorcery уже более индивидуальный в музыкальном плане сплит получился нежели с Haxan Dreams. Все таки Druadan Forest более яркий товарищ, который на своем творческом пути выпускал как и Метал альбомы, так и чисто электронные произведения. Здесь электроника от обоих проектов.
Сторона Druadan Forest это каноничный Oldschool Dungeon Synth, только мрачная эпика и не шагу в сторону. Все как было у Mortiis в его культовой Era I.
Сторона Old Sorcery это уже музыка современная, но эксплуатирующая Dungeon Synth эстетику прошлых лет. Музыкант не боится чуть раздвинуть рамки жанра и неплохо обыгрывает старые приемы с использованием своих собственных фишек.
Очень крепкая работа двух достаточно маститых проектов


Thanks:
Go to the top of the page
  Insert nick Quick quote
+Quote Post
post Jun 19 2021, 19:31:13
Post #3

**************
Group: Металариец
Posts: 2,754
Releases: 14
From: Казань
On Forums: 12 years 1 month
Thanks: 3838 time(s)
Russian Federation


Druadan Forest умело преподносит мрачный фон, но совсем не раскрывает мелодику, больше позиционируя минорную окраску, постоянно ее нагнетая в многократных повторениях. Это хорошо сочетается, скажем, с каким то Действом. усиливая накал, но не как самостоятельная архитектура, строящая эмоцию в контексте своей мелодии. Это мимолетное переживание, ты просто идешь по дороге и твою страсть рождает не аура, а сам поход.
Old Sorcery тоже не раскрывает свой потенциал, больше углубляется в классику, чем в классические клавишные этюды. Вообще, все достаточно однобоко, слишком много фэнтезийной слащавости.
Хотя, если взять например замечательный проект Solanum, напичканный фэнтези, он несравненно более отстраненный и эпичный
Go to the top of the page
  Insert nick Quick quote
+Quote Post
post Jun 19 2021, 19:43:53
Post #4

Три Литра
***
Group: Завсегдатай
Posts: 218
Releases: 0
On Forums: 4 months 1 week
Thanks: 168 time(s)
Unknown


ЦИТАТА(sethurius @ Jun 19 2021, 19:31:13) *
Хотя, если взять например замечательный проект Solanum, напичканный фэнтези, он несравненно более отстраненный и эпичный


Взял на заметку (IMG:style_emoticons/default/9.gif)
Go to the top of the page
  Insert nick Quick quote
+Quote Post

Reply to this topicStart new topic
1 User(s) are reading this topic (1 Guests and 0 Anonymous Users)
0 Members:

 



- Lo-Fi Version Support form
Copyrights and abuse reports form
Time is now: 21st October 2021 - 23:04:32