Welcome Guest ( Log In | Register )

> All Consumed - Rise Of The Godless (2021), Death Metal (D4)
post Jun 19 2021, 00:24:47
Post #1

Шесть Литров
******
Group: Металариец
Posts: 546
Releases: 486
On Forums: 4 months 4 weeks
Thanks: 12147 time(s)
United States


(IMG:https://metalarea.org/images/audiocovers/2021_Jun/acov_tid352236_thumb.jpg)

*Artist: All Consumed
*Album: Rise Of The Godless
*Year: 2021
*Genre: Death Metal
*Country: United Kingdom (IMG:https://metalarea.org/forum/style_images/flags/United%20Kingdom.png)
*Format: mp3@CBR320kbps
*Size: 99MB

Tracklist:
01. Retribution (Intro) 02:25
02. Through Violence Worship 03:50
03. Fall Of The Gods 03:26
04. Limbless 03:22
05. Dishonour Killing 03:43
06. Shapeless Existence 04:14
07. Darkest End 03:36
08. Crucifixion 03:53
09. Bathe In The Blood 04:30
10. Suicide Of The Soul 04:15
******************************
Total playing time: 37:14



Technical info
(IMG:https://metalarea.org/images/spectrogram/2021_Jun/fe34f3bf600372a593318c4915787ad6.png)
Input File: 02. Through Violence Worship.mp3
Channels : 2
Sample Rate : 44100
Precision : 16-bit
Duration : 00:03:50.91 = 10183219 samples = 17318.4 CDDA sectors
File Size : 9.77M
Bit Rate : 338k
Sample Encoding: MPEG audio (layer I, II or III)
Comments :
Title=Through Violence Worship
Artist=All Consumed
Album=Rise Of The Godless
Tracknumber=02/10
Year=2021
Genre=Metal



Register


Go to the top of the page
  Insert nick Quick quote
+Quote Post
 
Start new topic
Replies (1 - 3)
post Jun 19 2021, 09:11:00
Post #2

кручу наждак
**************
Group: Металариец
Posts: 5,134
Releases: 104
From: Самара
On Forums: 11 years 4 months
Thanks: 4122 time(s)
Russian Federation


Прямолинейный, дуболомный в хорошем смысле олдскул.


Thanks:
Go to the top of the page
  Insert nick Quick quote
+Quote Post
post Jun 19 2021, 15:24:51
Post #3

Слава всем нам,например!
**************
Group: Металариец
Posts: 2,615
Releases: 33
From: Русская Москва
On Forums: 15 years 3 months
Thanks: 1424 time(s)
Russian Federation


жЫрная жЫрота (IMG:style_emoticons/default/pray.gif) прут как танк (IMG:style_emoticons/default/20.gif)


Thanks:
Go to the top of the page
  Insert nick Quick quote
+Quote Post
post Jun 20 2021, 08:41:52
Post #4

Маньяк
**********
Group: Металариец
Posts: 1,156
Releases: 1
From: APATIN, SERBIA, АПАТИН, СЕРБИЯ
On Forums: 13 years 11 months
Thanks: 2773 time(s)



Flac

Register


Thanks:
Go to the top of the page
  Insert nick Quick quote
+Quote Post

Reply to this topicStart new topic
2 User(s) are reading this topic (2 Guests and 0 Anonymous Users)
0 Members:

 



- Lo-Fi Version Support form
Copyrights and abuse reports form
Time is now: 25th September 2021 - 22:00:19