Welcome Guest ( Log In | Register )

> И неформату есть предел.

Рэп/хип-хоп/шансон/поп удаляются. Для них есть свои порталы.

> Det Kätterska Förbund - Lidaverken Del I: Att I Vådeld Förgås (2021), Death Industrial
post Jun 20 2021, 08:16:04
Post #1

Far Away From the Sun
**************
Group: Металариец
Posts: 2,040
Releases: 18
On Forums: 11 years 7 months
Thanks: 4299 time(s)
Russian Federation


(IMG:http://metalarea.org/images/audiocovers/2021_Jun/acov_tid352297_thumb.jpg)

*Artist: Det Kätterska Förbund
*Album: Lidaverken Del I: Att I Vådeld Förgås
*Year: 2021
*Genre: Death Industrial
*Country: Sweden (IMG:http://metalarea.org/forum/style_images/flags/Sweden.png)
*Format: mp3@CBR320kbps
*Size: 77MB

Tracklist:
1. He Will Fall 6:58
2. Endless Golgatha 4:11
3. Att I Vådeld Förgås 4:06
4. Sacred Grounds 5:08
5. Bar Är Broderlös Rygg 3:05
6. Vid Hälleberg 5:28
7. Vanhelgat Vard Ditt Namn 5:22
******************************
Total playing time: 34:18



Extended info
Det Kätterska Förbund, consisting of the two giants dominating the Death Industrial world - Thomas Ekelund (Trepaneringsritualen, Dead Letters Spell Out Dead Words) + Henrik Nordvargr Björkk (MZ.412, Pouppée Fabrikk, Folkstorm etc) - has been slowly and methodically working for almost 5 years to finish the first album of this double-headed abomination. Patience richly rewarded.

You can instantly feel the presence of lurking unease as the album slowly opens up a distorted world of familiar sounds and voices, but there is something special about these recordings; the menacing aura that has been created adds new elements to the otherwise rigid tropes of the genre. Punishingly heavy rhythmic tracks, with savage incantations from both Thomas and Nordvargr, gratifyingly familiar to fans of the artists' main projects, are flanked by these death-scarred lamentations (Cold Spring)


Technical info
(IMG:http://metalarea.org/images/spectrogram/2021_Jun/d0982a413745d588d503d193055661b8.png)
Input File: 02. Endless Golgatha.mp3
Channels : 2
Sample Rate : 44100
Precision : 16-bit
Duration : 00:04:13.09 = 11161313 samples = 18981.8 CDDA sectors
File Size : 10.2M
Bit Rate : 322k
Sample Encoding: MPEG audio (layer I, II or III)
Comments :
Title=Endless Golgatha
Artist=Det Kätterska Förbund
Album=Lidaverken Del 1: Att I Vådeld Förgås
Tracknumber=02
Year=2021
Genre=Death Industrial



Register


Go to the top of the page
  Insert nick Quick quote
+Quote Post
 
Start new topic
Replies (1 - 3)
post Jun 20 2021, 10:27:48
Post #2

градусы контрастов
**************
Group: Металариец
Posts: 5,121
Releases: 0
On Forums: 5 years 5 months
Thanks: 3313 time(s)
Unknown


ЦИТАТА(Haunting @ 20th June 2021 - 12:16:04) *
Det Kätterska Förbund, consisting of the two giants dominating the Death Industrial world - Thomas Ekelund (Trepaneringsritualen, Dead Letters Spell Out Dead Words) + Henrik Nordvargr Björkk (MZ.412, Pouppée Fabrikk, Folkstorm etc)

сразу повод пройти мимо.


Thanks:
Go to the top of the page
  Insert nick Quick quote
+Quote Post
post Jun 21 2021, 21:09:33
Post #3

De Mysteriis Dom Sathanas
**************
Group: Металариец
Posts: 4,229
Releases: 63
From: Doom
On Forums: 13 years 1 week
Thanks: 3631 time(s)
Russian Federation


Как минимум прослушать надо
Go to the top of the page
  Insert nick Quick quote
+Quote Post
post Jun 23 2021, 10:53:20
Post #4

Шесть Литров
******
Group: Металариец
Posts: 587
Releases: 5
On Forums: 11 years 6 months
Thanks: 375 time(s)
Russian Federation


ЦИТАТА(ent404 @ 20th June 2021 - 12:27:48) *
сразу повод пройти мимо

+1.
Одни из самых расхайпованных проектов на пост-индустриальной сцене, в творчестве которых очень трудно найти что-то интересное.


Thanks:
Go to the top of the page
  Insert nick Quick quote
+Quote Post

Reply to this topicStart new topic
1 User(s) are reading this topic (1 Guests and 0 Anonymous Users)
0 Members:

 



- Lo-Fi Version Support form
Copyrights and abuse reports form
Time is now: 25th July 2021 - 20:12:02