Welcome Guest ( Log In | Register )

> Pandemic Outbreak - Skulls Beneath The Cross (2021), Old School Thrash/Death Metal
post Jun 20 2021, 21:22:43
Post #1

Правь статус, ####!111
**************
Group: Металариец
Posts: 27,654
Releases: 20089
From: Г.Харьков
On Forums: 9 years 5 months
Thanks: 406476 time(s)
Unknown


(IMG:https://metalarea.org/images/audiocovers/2021_Jun/acov_tid352341_thumb.jpg)

*Artist: Pandemic Outbreak
*Album: Skulls Beneath The Cross
*Year: 2021
*Genre: Old School Thrash/Death Metal
*Country: Poland (IMG:https://metalarea.org/forum/style_images/flags/Poland.png)
*Format: mp3@CBR320kbps
*Size: 105MB

Tracklist:
1. Pandemic Protocol (Intro) 01:19
2. Along the Stream 03:56
3. Personification of Evil (F.F.F.) 02:51
4. Rise of the Damned 02:19
5. Infected Identity 05:09
6. …In the Name of God 06:05
7. Human trophy 04:13
8. Obliterated Past 04:44
9. Ritual Annihilation 04:11
10. Skulls Beneath the Cross 04:18
11. Into the Realm of Madness 04:29
******************************
Total playing time: 43:34




Extended info
Szymon "Rezus" Wójcik Drums (2014-2015, 2018-2019, 2020-present)
See also: ex-Bloodsplash
Menzel Guitars, Vocals (2014-2019, 2020-present)
See also: Frightful, ex-Ägresor, ex-Repulsor, ex-Mechanix
Paweł Snarski Guitars (rhythm) (2016-2019, 2020-present)
See also: Frightful, ex-Dreadnought
Kotwa Bass (2021-present)
See also: ex-Raging Death, ex-Terrordome (live)


Technical info
(IMG:https://metalarea.org/images/spectrogram/2021_Jun/4b454274b7e1f9f03fc0eb018bdede9f.png)
Input File: 06. …In the Name of God.mp3
Channels : 2
Sample Rate : 44100
Precision : 16-bit
Duration : 00:06:05.69 = 16126709 samples = 27426.4 CDDA sectors
File Size : 15.1M
Bit Rate : 329k
Sample Encoding: MPEG audio (layer I, II or III)
Comments :
Title=…In the Name of God
Artist=Pandemic Outbreak
Album=Skulls Beneath the Cross (320)
Tracknumber=06
Year=2021
Genre=Metal



Register


Go to the top of the page
  Insert nick Quick quote
+Quote Post
 
Start new topic
Replies (1 - 2)
post Jun 21 2021, 18:08:33
Post #2

Правь статус, ####!111
**************
Group: Металариец
Posts: 27,654
Releases: 20089
From: Г.Харьков
On Forums: 9 years 5 months
Thanks: 406476 time(s)
Unknown


FLAC (Tracks) 318 mb
Register


Go to the top of the page
  Insert nick Quick quote
+Quote Post
post Oct 13 2021, 14:33:02
Post #3

Пять Литров
*****
Group: Металариец
Posts: 492
Releases: 0
From: германия
On Forums: 12 years 10 months
Thanks: 180 time(s)
Russian Federation


Круто играют . !
Go to the top of the page
  Insert nick Quick quote
+Quote Post

Reply to this topicStart new topic
1 User(s) are reading this topic (1 Guests and 0 Anonymous Users)
0 Members:

 



- Lo-Fi Version Support form
Copyrights and abuse reports form
Time is now: 16th October 2021 - 03:31:16