Welcome Guest ( Log In | Register )

> Ulvehyrde - Englemakersken [single] (2021), Black Metal
post Jun 21 2021, 11:27:35
Post #1

KPN 666
**************
Group: Металариец
Posts: 2,552
Releases: 1161
From: Тегеран
On Forums: 12 years 3 weeks
Thanks: 17450 time(s)
Iran


(IMG:http://metalarea.org/images/audiocovers/2021_Jun/acov_tid352359_thumb.jpg)

*Artist: Ulvehyrde
*Album: Englemakersken [single]
*Year: 2021
*Genre: Black Metal
*Country: Norway (IMG:http://metalarea.org/forum/style_images/flags/Norway.png)
*Format: mp3@CBR320kbps
*Size: 9MB

Tracklist:
01. Englemakersken 3:57
******************************
Total playing time: 3:57

Technical info
(IMG:http://metalarea.org/images/spectrogram/2021_Jun/a6f0c23767ca2ddb91951956a36bbcee.png)
Input File: 01. Englemakersken.mp3
Channels : 2
Sample Rate : 44100
Precision : 16-bit
Duration : 00:00:00.24 = 10408 samples = 17.7007 CDDA sectors
File Size : 9.59M
Bit Rate : 325M
Sample Encoding: MPEG audio (layer I, II or III)
Comments :
Title=Englemakersken
Artist=Ulvehyrde
Album=Englemakersken
Tracknumber=1
Year=2021-03-19
Genre=Rock
Discnumber=1



Register


Go to the top of the page
  Insert nick Quick quote
+Quote Post
 
Start new topic
Replies (1 - 2)
post Jun 21 2021, 21:02:29
Post #2

De Mysteriis Dom Sathanas
**************
Group: Металариец
Posts: 4,229
Releases: 63
From: Doom
On Forums: 13 years 1 week
Thanks: 3629 time(s)
Russian Federation


Архивы пишут норги


Thanks:
(1) NachtWulf,
Go to the top of the page
  Insert nick Quick quote
+Quote Post
post Jun 21 2021, 21:54:12
Post #3

KPN 666
**************
Group: Металариец
Posts: 2,552
Releases: 1161
From: Тегеран
On Forums: 12 years 3 weeks
Thanks: 17450 time(s)
Iran


QUOTE(RUSP73 @ Jun 21 2021, 23:02:29) *
Архивы пишут норги

My bad I think. Maybe moderator could correct it.
Go to the top of the page
  Insert nick Quick quote
+Quote Post

Reply to this topicStart new topic
2 User(s) are reading this topic (2 Guests and 0 Anonymous Users)
0 Members:

 



- Lo-Fi Version Support form
Copyrights and abuse reports form
Time is now: 24th July 2021 - 08:58:56