Welcome Guest ( Log In | Register )

 
Reply to this topicStart new topic
> Collusion - Demo 1 [demo] (2019), Black Metal
post Jun 22 2021, 18:56:03
Post #1

Правь статус, ####!111
**************
Group: Металариец
Posts: 5,611
Releases: 632
From: MoscoW
On Forums: 17 years 4 months
Thanks: 10290 time(s)
Russian Federation


(IMG:https://metalarea.org/images/audiocovers/2021_Jun/acov_tid352436_thumb.jpg)

*Artist: Collusion
*Album: Demo 1 [demo]
*Year: 2019
*Genre: Black Metal
*Country: Spain (IMG:https://metalarea.org/forum/style_images/flags/Spain.png)
*Format: mp3@CBR320kbps
*Size: 56MB

Tracklist:
01. Land Of Endless Storms 02:34
02. Forbidden Castle Spell Cast 05:02
03. Perils Of The Doomed Order 05:19
04. Freezing In The Prussian Forest Covered In Blood Of The Untrve 05:53
05. Midnight At The Church Clock Tower 05:15
******************************
Total playing time: 24:03

Extended info




Technical info
(IMG:https://metalarea.org/images/spectrogram/2021_Jun/98a62c75ba6b1854469a411b236c4c2c.png)
Input File: 01. Land Of Endless Storms.mp3
Channels : 2
Sample Rate : 44100
Precision : 16-bit
Duration : 00:02:30.76 = 6648692 samples = 11307.3 CDDA sectors
File Size : 6.09M
Bit Rate : 323k
Sample Encoding: MPEG audio (layer I, II or III)
Comments :
Title=Land of Endless Storms
Artist=Collusion
Album=Demo 1
Tracknumber=1
Year=2019



Register


Go to the top of the page
  Insert nick Quick quote
+Quote Post

Reply to this topicStart new topic
1 User(s) are reading this topic (1 Guests and 0 Anonymous Users)
0 Members:

 



- Lo-Fi Version Support form
Copyrights and abuse reports form
Time is now: 19th April 2024 - 23:12:54